Правила форума

  • В этом разделе создание новых тем Запрещено.
  • Для создания новых тем пользуйтесь Корневым разделом DVD и HD фильмы.
Начать новую темуОтветить на тему  [ Сообщений: 4 ] 
Торрент файл
Размер: 7.87 GB • Зарегистрирован: 5 лет 5 месяцев • Статус: Проверено
Скачан: 302 раза • Желающих скачать: 0 • Поблагодарили: 53 раза
 Раздают: 0  |  0 KB/s  ]   Качают: 0  |  0 KB/s  ] 
 Полного источника не было 11 месяцев 
Сообщения
 Добавлено: 2011-07-01 13:56
Top-releaser
Аватара пользователя
Стаж: 8 лет 9 месяцев
Сообщений: 479
Спасибок: 20187
Лайков: 16
Изображение

I Am Legend

Изображение


Год выпуска: 2007
Страна: Изображение США; Изображение Warner Bros. Pictures
Слоган: «Последний человек на Земле не одинок.»
Жанр: Фантастика, триллер, драма
Продолжительность: 01:40:31
Перевод: Профессиональный (дублированный)
Cубтитры: Русские, английские

Режиссёр: Френсис Лоуренс / Francis Lawrence

В ролях: Уилл Смит, Алиси Брага, Чарли Тахэн, Салли Ричардсон, Уиллоу Смит, Даррел Фостер, Эйприл Грэйс, Дэш Майок, Джоанна Нумата, Эбби, ...

Описание: Адаптация одноименного романа Ричарда Мэтисона о неизвестном вирусе, унесшем жизни половины населения земного шара, а остальную половину превратившего в вампиров. Сюжет строится вокруг единственного уцелевшего человека с необъяснимым иммунитетом, ночами держащего бесконечную осаду упырей, а днем пытающегося найти противоядие и выяснить причины эпидемии.

Качество: BDRip 720p
Формат: MKV

Видео: 1280x532 (2.40:1), 23.976 fps, x264@L4.1, crf, ~4857 kbps

Аудио 1: 48 kHz, AC3 Dolby Digital, 3/2 (L,C,R,l,r) + LFE ch, ~448 kbps - Дубляж, Blu-ray CEE
Аудио 2: 48 kHz/16-bit, DTS, 3/2 (L,C,R,l,r) + LFE ch, ~1536 kbps - Многоголосый закадровый, студия "Кравец"
Аудио 3: 48 kHz/16-bit, DTS, 3/2 (L,C,R,l,r) + LFE ch, ~1536 kbps - Двухголосый закадровый, П.Гланц и И.Королёва
Аудио 4: 48 kHz, AC3 Dolby Digital, 3/2 (L,C,R,l,r) + LFE ch, ~384 kbps - Двухголосый закадровый, Киномания
Аудио 5: 48 kHz, AC3 Dolby Digital, 3/2 (L,C,R,l,r) + LFE ch, ~384 kbps - Двухголосый закадровый, Позитив-Мультимедиа
Аудио 6: 48 kHz, AC3 Dolby Digital, 3/2 (L,C,R,l,r) + LFE ch, ~384 kbps - Одноголосый закадровый, Ю.Сербин
Аудио 7: 48 kHz/16-bit, DTS, 3/2 (L,C,R,l,r) + LFE ch, ~1536 kbps - Оригинал
Изображение
MediaInfo

General
Complete name : Ya legenda 2007 BDRip 720p.[nntt]
Format : Matroska
File size : 7.87 GiB
Duration : 1h 40mn
Overall bit rate : 11.2 Mbps
Movie name : R.G. HQCLUB | 720p BDRip by DaniLch
Encoded date : UTC 2011-06-14 18:43:38
Writing application : mkvmerge v4.8.0 ('I Got The...') built on May 24 2011 03:12:58
Writing library : libebml v1.2.0 + libmatroska v1.1.0

Video
ID : 1
Format : AVC
Format/Info : Advanced Video Codec
Format profile : High@L4.1
Format settings, CABAC : Yes
Format settings, ReFrames : 8 frames
Codec ID : V_MPEG4/ISO/AVC
Duration : 1h 40mn
Bit rate : 4 857 Kbps
Width : 1 280 pixels
Height : 532 pixels
Display aspect ratio : 2.40:1
Frame rate : 23.976 fps
Color space : YUV
Chroma subsampling : 4:2:0
Bit depth : 8 bits
Scan type : Progressive
Bits/(Pixel*Frame) : 0.297
Stream size : 3.41 GiB (43%)
Title : Я - легенда / I Am Legend (2007)
Writing library : x264 core 115 r1995 c1e60b9
Encoding settings : cabac=1 / ref=8 / deblock=1:-3:-3 / analyse=0x3:0x113 / me=umh / subme=10 / psy=1 / psy_rd=1.20:0.00 / mixed_ref=1 / me_range=32 / chroma_me=1 / trellis=2 / 8x8dct=1 / cqm=0 / deadzone=21,11 / fast_pskip=0 / chroma_qp_offset=1 / threads=6 / sliced_threads=0 / nr=0 / decimate=1 / interlaced=0 / bluray_compat=0 / constrained_intra=0 / bframes=9 / b_pyramid=2 / b_adapt=2 / b_bias=0 / direct=1 / weightb=1 / open_gop=0 / weightp=2 / keyint=250 / keyint_min=23 / scenecut=40 / intra_refresh=0 / rc_lookahead=40 / rc=crf / mbtree=0 / crf=15.5 / qcomp=0.60 / qpmin=10 / qpmax=51 / qpstep=4 / vbv_maxrate=50000 / vbv_bufsize=62500 / crf_max=0.0 / nal_hrd=none / ip_ratio=1.40 / pb_ratio=1.30 / aq=1:1.00
Language : English

Audio #1
ID : 2
Format : AC-3
Format/Info : Audio Coding 3
Mode extension : CM (complete main)
Codec ID : A_AC3
Duration : 1h 40mn
Bit rate mode : Constant
Bit rate : 448 Kbps
Channel(s) : 6 channels
Channel positions : Front: L C R, Side: L R, LFE
Sampling rate : 48.0 KHz
Bit depth : 16 bits
Compression mode : Lossy
Stream size : 322 MiB (4%)
Title : AC3 5.1 @ 448 kbps - Дубляж, Blu-ray CEE
Language : Russian

Audio #2
ID : 3
Format : DTS
Format/Info : Digital Theater Systems
Codec ID : A_DTS
Duration : 1h 40mn
Bit rate mode : Constant
Bit rate : 1 510 Kbps
Channel(s) : 6 channels
Channel positions : Front: L C R, Side: L R, LFE
Sampling rate : 48.0 KHz
Bit depth : 16 bits
Compression mode : Lossy
Stream size : 1.06 GiB (13%)
Title : DTS 5.1 @ 1536 kbps - Многоголосый закадровый, студия "Кравец"
Language : Russian

Audio #3
ID : 4
Format : DTS
Format/Info : Digital Theater Systems
Codec ID : A_DTS
Duration : 1h 40mn
Bit rate mode : Constant
Bit rate : 1 510 Kbps
Channel(s) : 6 channels
Channel positions : Front: L C R, Side: L R, LFE
Sampling rate : 48.0 KHz
Bit depth : 16 bits
Compression mode : Lossy
Stream size : 1.06 GiB (13%)
Title : DTS 5.1 @ 1536 kbps - Двухголосый закадровый, П.Гланц и И.Королёва
Language : Russian

Audio #4
ID : 5
Format : AC-3
Format/Info : Audio Coding 3
Mode extension : CM (complete main)
Codec ID : A_AC3
Duration : 1h 40mn
Bit rate mode : Constant
Bit rate : 384 Kbps
Channel(s) : 6 channels
Channel positions : Front: L C R, Side: L R, LFE
Sampling rate : 48.0 KHz
Bit depth : 16 bits
Compression mode : Lossy
Stream size : 276 MiB (3%)
Title : AC3 5.1 @ 384 kbps - Двухголосый закадровый, Киномания
Language : Russian

Audio #5
ID : 6
Format : AC-3
Format/Info : Audio Coding 3
Mode extension : CM (complete main)
Codec ID : A_AC3
Duration : 1h 40mn
Bit rate mode : Constant
Bit rate : 384 Kbps
Channel(s) : 6 channels
Channel positions : Front: L C R, Side: L R, LFE
Sampling rate : 48.0 KHz
Bit depth : 16 bits
Compression mode : Lossy
Stream size : 276 MiB (3%)
Title : AC3 5.1 @ 384 kbps - Двухголосый закадровый, Позитив-Мультимедиа
Language : Russian

Audio #6
ID : 7
Format : AC-3
Format/Info : Audio Coding 3
Mode extension : CM (complete main)
Codec ID : A_AC3
Duration : 1h 40mn
Bit rate mode : Constant
Bit rate : 384 Kbps
Channel(s) : 6 channels
Channel positions : Front: L C R, Side: L R, LFE
Sampling rate : 48.0 KHz
Bit depth : 16 bits
Compression mode : Lossy
Stream size : 276 MiB (3%)
Title : AC3 5.1 @ 384 kbps - Одноголосый закадровый, Ю.Сербин
Language : Russian

Audio #7
ID : 8
Format : DTS
Format/Info : Digital Theater Systems
Codec ID : A_DTS
Duration : 1h 40mn
Bit rate mode : Constant
Bit rate : 1 510 Kbps
Channel(s) : 6 channels
Channel positions : Front: L C R, Side: L R, LFE
Sampling rate : 48.0 KHz
Bit depth : 16 bits
Compression mode : Lossy
Stream size : 1.06 GiB (13%)
Title : DTS 5.1 @ 1536 kbps
Language : English

Text #1
ID : 9
Format : UTF-8
Codec ID : S_TEXT/UTF8
Codec ID/Info : UTF-8 Plain Text
Language : Russian

Text #2
ID : 10
Format : UTF-8
Codec ID : S_TEXT/UTF8
Codec ID/Info : UTF-8 Plain Text
Language : English

Свернуть
Награды и премии

Изображение
Свернуть

Скриншоты

Изображение
Изображение
Изображение
Изображение
Изображение
Свернуть

Раздача:

Изображение
_________________
Изображение
Изображение
Не в сети
Профиль  
 Добавлено: 2012-02-02 17:38 (спустя 7 месяцев)
Аватара пользователя
Стаж: 8 лет 1 месяц
Возраст: 26
Сообщений: 132
Лайков: 1
народ встанте на раздачу, СПС!
Не в сети
Профиль  
 Добавлено: 2012-06-06 20:00 (спустя 4 месяца 4 дня)
Аватара пользователя
Стаж: 8 лет 6 месяцев
Сообщений: 20
Ооо, как много звуковых дорожек)
Не в сети
Профиль  
 Добавлено: 2013-11-17 15:19 (спустя 1 год 5 месяцев)
Стаж: 4 года
Сообщений: 9
Скорости пожалуйста ;)
Не в сети
Профиль  
Начать новую темуОтветить на тему  [ Сообщений: 4 ] 
Вы не можете начинать темы
Вы не можете отвечать на сообщения
Вы не можете редактировать свои сообщения
Вы не можете удалять свои сообщения