Правила форума

  • В этом разделе создание новых тем Запрещено.
  • Для создания новых тем пользуйтесь Корневым разделом DVD и HD фильмы.
Начать новую темуОтветить на тему  [ Сообщений: 3 ] 
Торрент файл
Размер: 8.98 GB • Зарегистрирован: 5 лет 9 месяцев • Статус: Проверено
Скачан: 64 раза • Желающих скачать: 0 • Поблагодарили: 20 раз
 Раздают: 0  |  0 KB/s  ]   Качают: 0  |  0 KB/s  ] 
 Полного источника не было 3 года 1 месяц 
Сообщения
 Добавлено: 2011-03-08 22:13
Модератор релиз-группы
Аватара пользователя
Стаж: 7 лет 8 месяцев
Возраст: 29
Сообщений: 9789
Спасибок: 23732
Лайков: 103
Изображение

Я люблю тебя, Филлип Моррис / I Love You Phillip Morris


Год выпуска: 2008
Страна: США, Франция
Слоган: «Нас не догонят!»
Жанр: драма, мелодрама, комедия
Продолжительность: 01:58:58
Перевод: Профессиональный (полное дублирование)
Режиссер: Гленн Фикарра, Джон Рекуа
Сценарий: Джон Рекуа, Гленн Фикарра, Стив МакВикер
Продюсер: Эндрю Лазар, Фар Шариат, Люк Бессон, Джеффри Харлэкер, Ричард Миддлтон
Оператор: Ксавьер Перес Гробет
Композитор: Ник Урата
В ролях: Джим Керри (Steven Russell), Юэн МакГрегор (Phillip Morris), Лесли Манн (Debbie), Родриго Санторо (Jimmy), Энтони Короне (Lindholm), Бреннан Браун (Larry Birkheim), Майкл Мэндел (Cleavon), Энни Голден (Eudora), Мэрилуиз Бёрк (Barbara Bascombe), Дэвид Дженсен (Judge), Дамеон Кларк (Houston Lawyer), Клэй Чамберлен (Cellmate - Arnie)
Описание: Стивен Расселл - образцовый отец семейства - в результате дерзкой аферы оказывается в техасской тюрьме. Там он без памяти влюбляется в другого заключенного, Филлипа Морриса.
Изображение
Бюджет: $13 000 000
Сборы в США: $1 961 547
Сборы в России: $880 581
Сборы в мире: $7 312 792
Мировая премьера: 18 января 2009
Релиз на DVD: 13 мая 2010, «Вольга»
Релиз на Blu-ray: 13 мая 2010, «Вольга»
Изображение
MPAA: Изображение
Раздача группы: Изображение
Качество: BDRip 1080р
Формат: Matroska
Видео: MPEG-4 AVC, 11.0 Mбит/с, 1920x1080
Аудио: Русский (DTS, 6 ch, 1510 Кбит/с), английский (AC3, 6 ch, 640 Кбит/с)
MI
General
Complete name                    : F:\Ja.lyublyu.tebya.fillip.morris.2009.x264.BDRip.1080p.mkv
Format                           : Matroska
File size                        : 8.98 GiB
Duration                         : 1h 37mn
Overall bit rate                 : 13.2 Mbps
Movie name                       : I Love You Phillip Morris - uiuc
Encoded date                     : UTC 2011-03-04 15:27:51
Writing application              : mkvmerge v4.4.0 ('Die Wiederkehr') built on Oct 31 2010 21:52:48
Writing library                  : libebml v1.0.0 + libmatroska v1.0.0

Video
ID                               : 1
Format                           : AVC
Format/Info                      : Advanced Video Codec
Format profile                   : High@L4.1
Format settings, CABAC           : Yes
Format settings, ReFrames        : 3 frames
Muxing mode                      : Container profile=Unknown@4.1
Codec ID                         : V_MPEG4/ISO/AVC
Duration                         : 1h 37mn
Bit rate                         : 11.0 Mbps
Width                            : 1 920 pixels
Height                           : 1 080 pixels
Display aspect ratio             : 16:9
Frame rate                       : 24.000 fps
Color space                      : YUV
Chroma subsampling               : 4:2:0
Bit depth                        : 8 bits
Scan type                        : Progressive
Bits/(Pixel*Frame)               : 0.222
Stream size                      : 7.33 GiB (82%)
Writing library                  : x264 core 80 r1376M 3feaec2
Encoding settings                : cabac=1 / ref=4 / deblock=1:-3:-3 / analyse=0x3:0x113 / me=hex / subme=7 / psy=1 / psy_rd=1.0:0.2 / mixed_ref=1 / me_range=16 / chroma_me=1 / trellis=1 / 8x8dct=1 / cqm=0 / deadzone=21,11 / fast_pskip=1 / chroma_qp_offset=-3 / threads=3 / sliced_threads=0 / slices=4 / nr=0 / decimate=1 / mbaff=0 / constrained_intra=0 / bframes=7 / b_pyramid=1 / b_adapt=1 / b_bias=0 / direct=1 / wpredb=1 / wpredp=2 / keyint=24 / keyint_min=2 / scenecut=40 / rc_lookahead=24 / rc=2pass / mbtree=1 / bitrate=11027 / ratetol=1.0 / qcomp=0.60 / qpmin=10 / qpmax=51 / qpstep=4 / cplxblur=20.0 / qblur=0.5 / vbv_maxrate=40000 / vbv_bufsize=30000 / ip_ratio=1.40 / aq=1:1.00

Audio #1
ID                               : 2
Format                           : DTS
Format/Info                      : Digital Theater Systems
Codec ID                         : A_DTS
Duration                         : 1h 37mn
Bit rate mode                    : Constant
Bit rate                         : 1 510 Kbps
Channel(s)                       : 6 channels
Channel positions                : Front: L C R, Side: L R, LFE
Sampling rate                    : 48.0 KHz
Bit depth                        : 24 bits
Stream size                      : 1.03 GiB (11%)
Title                            : (DTS, 6 ch @ 1510 Kbps)
Language                         : Russian

Audio #2
ID                               : 3
Format                           : AC-3
Format/Info                      : Audio Coding 3
Mode extension                   : CM (complete main)
Codec ID                         : A_AC3
Duration                         : 1h 37mn
Bit rate mode                    : Constant
Bit rate                         : 640 Kbps
Channel(s)                       : 6 channels
Channel positions                : Front: L C R, Side: L R, LFE
Sampling rate                    : 48.0 KHz
Bit depth                        : 16 bits
Stream size                      : 447 MiB (5%)
Title                            : (AC3, 6 ch @ 640 Kbps)

Text
ID                               : 4
Format                           : UTF-8
Codec ID                         : S_TEXT/UTF8
Codec ID/Info                    : UTF-8 Plain Text
Title                            : Subs
Свернуть

"Знаете ли Вы, что..."
  • Фильм снят по книге хьюстонского журналиста Стива МакВикера «Я люблю тебя, Филлип Моррис: Правдивая история жизни, любви и тюремных побегов», которая является биографией американского мошенника Стивена Джея Расселла.
Свернуть

Скриншоты

Изображение
Изображение
Изображение
Свернуть
Оформлено by Евгений Лебедев
Не в сети
Профиль  
 Добавлено: 2011-08-03 21:01 (спустя 4 месяца 25 дней)
Аватара пользователя
Стаж: 6 лет 10 месяцев
Возраст: 38
Сообщений: 152
чуваки встаньте пожалуйста на раздачу :de_vil:
Не в сети
Профиль  
 Добавлено: 2013-09-21 10:29 (спустя 2 года 1 месяц)
Аватара пользователя
Стаж: 6 лет 10 месяцев
Возраст: 38
Сообщений: 152
алеле-эту раздачу подают?-


Тема поднималась пользователем volkov2009 2013-09-21 10:29.
Не в сети
Профиль  
Начать новую темуОтветить на тему  [ Сообщений: 3 ] 
Вы не можете начинать темы
Вы не можете отвечать на сообщения
Вы не можете редактировать свои сообщения
Вы не можете удалять свои сообщения