Правила форума

  • В этом разделе создание новых тем Запрещено.
  • Для создания новых тем пользуйтесь Корневым разделом DVD и HD фильмы.
Начать новую темуОтветить на тему  [ Сообщений: 2 ] 
Торрент файл
Размер: 11.22 GB • Зарегистрирован: 4 года 11 месяцев • Статус: Проверено
Скачан: 168 раз • Желающих скачать: 0 • Поблагодарили: 26 раз
 Раздают: 0  |  0 KB/s  ]   Качают: 0  |  0 KB/s  ] 
 Полного источника не было 1 год 1 месяц 
Сообщения
 Добавлено: 2011-12-26 14:15
Модератор релиз-группы
Аватара пользователя
Стаж: 9 лет 1 месяц
Возраст: 97
Сообщений: 11659
Спасибок: 6530
Лайков: 269
Я не знаю, как она делает это / I Don't Know How She Does It

«Мужчинам это не по зубам»

Изображение

Страна: США
Жанр: комедия
Год выпуска: 2011
Продолжительность: 01:29:28
Перевод: Профессиональный (дублированный) R5
Оригинальная аудиодорожка
Субтитры: Ukrainian

Режиссер: Дуглас МакГрат / Douglas McGrath

В ролях: Сара Джессика Паркер, Пирс Броснан , Грег Киннер, Кристина Хендрикс, Келси Грэммер, Сет Майерс, Оливия Манн, Джейн Куртин, Марк Блум, Бизи Филиппс, Сара Шахи, Джессика Зор
Описание: Кейт - фондовый менеджер и мать двоих детей. В отличие от мужчин, которые не могут делать два дела одновременно, Кейт сразу может делать сто: менять пеленки, продавать и покупать акции, выяснять отношения с мужем, отбиваться от тупого босса и много чего еще. Жизнь Кейт - это череда смешных, неловких и нелепых ситуаций, в которые она постоянно попадает в попытках втиснуть две жизни в одну. Превосходная комедия, после которой многие женщины задумаются о переменах в своей жизни, а мужчины посмотрят на своих подруг по-другому.
Изображение
Качество: BDRip 1080p
Формат: MKV
Видео: MPEG4 Video (H264) 1920x1080 23.98fps 15.6 Mbps |HDChina|
Аудио 1: |Russian| Dolby AC3 48000Hz 6ch 448 Kbps
Аудио 2: |English| DTS 48000Hz 6ch 1510 Kbps
Субтитры: Ukrainian
скриншоты
Изображение

Изображение

Изображение

Изображение
Свернуть
Mi
Format : Matroska
Format version : Version 2
File size : 11.2 GiB
Duration : 1h 29mn
Overall bit rate : 18.0 Mbps
Encoded date : UTC 2011-12-25 11:24:41
Writing application : mkvmerge v4.2.0 ('No Talking') сборка от Jul 28 2010 18:38:23
Writing library : libebml v1.0.0 + libmatroska v1.0.0

Video
ID : 1
Format : AVC
Format/Info : Advanced Video Codec
Format profile : High@L4.1
Format settings, CABAC : Yes
Format settings, ReFrames : 4 frames
Muxing mode : zlib
Codec ID : V_MPEG4/ISO/AVC
Duration : 1h 29mn
Bit rate : 15.6 Mbps
Width : 1 920 pixels
Height : 1 080 pixels
Display aspect ratio : 16:9
Frame rate : 23.976 fps
Color space : YUV
Chroma subsampling : 4:2:0
Bit depth : 8 bits
Scan type : Progressive
Bits/(Pixel*Frame) : 0.315
Stream size : 9.78 GiB (87%)
Title : I.Dont.Know.How.She.Does.It
Language : English

Audio #1
ID : 2
Format : AC-3
Format/Info : Audio Coding 3
Mode extension : CM (complete main)
Codec ID : A_AC3
Duration : 1h 29mn
Bit rate mode : Constant
Bit rate : 448 Kbps
Channel(s) : 6 channels
Channel positions : Front: L C R, Side: L R, LFE
Sampling rate : 48.0 KHz
Bit depth : 16 bits
Compression mode : Lossy
Stream size : 287 MiB (2%)
Title : AC3 (rus)
Language : Russian

Audio #2
ID : 3
Format : DTS
Format/Info : Digital Theater Systems
Codec ID : A_DTS
Duration : 1h 29mn
Bit rate mode : Constant
Bit rate : 1 510 Kbps
Channel(s) : 6 channels
Channel positions : Front: L C R, Side: L R, LFE
Sampling rate : 48.0 KHz
Bit depth : 24 bits
Compression mode : Lossy
Stream size : 966 MiB (8%)
Title : DTS (eng)
Language : English

Text
ID : 4
Format : UTF-8
Codec ID : S_TEXT/UTF8
Codec ID/Info : UTF-8 Plain Text
Title : Sub (ukr)
Language : Ukrainian

Свернуть
_________________
Изображение
Не в сети
Профиль  
 Добавлено: 2012-01-06 21:13 (спустя 11 дней)
Стаж: 6 лет 10 месяцев
Сообщений: 6
подскажите плз как запустить его через CyberLink.PowerDVD.Ultra.Deluxe.v7.3.Build.3319a
Не в сети
Профиль  
Начать новую темуОтветить на тему  [ Сообщений: 2 ] 
Вы не можете начинать темы
Вы не можете отвечать на сообщения
Вы не можете редактировать свои сообщения
Вы не можете удалять свои сообщения