Правила форума

  • В этом разделе создание новых тем Запрещено.
  • Для создания новых тем пользуйтесь Корневым разделом DVD и HD фильмы.
Начать новую темуОтветить на тему  [ Сообщений: 5 ] 
Торрент файл
Размер: 7.26 GB • Зарегистрирован: 3 года 4 месяца • Статус: Проверено
Скачан: 196 раз • Желающих скачать: 0 • Поблагодарили: 41 раз
 Раздают: 0  |  0 KB/s  ]   Качают: 0  |  0 KB/s  ] 
 Полного источника не было 4 дня 
Сообщения
 Добавлено: 2013-07-22 14:25
Аватара пользователя
Стаж: 9 лет 1 месяц
Сообщений: 8018
Спасибок: 122271
Лайков: 1194
Я очень возбужден / Los amantes pasajeros

«Всё прекрасно! Падаем...»

Изображение


Год выпуска: 2013
Страна: Изображение Испания
Жанр: комедия
Продолжительность: 01:30:19
Перевод: Профессиональный (полное дублирование) [Лицензия]


Режиссер: Педро Альмодовар
Сценарий: Педро Альмодовар
Продюсер: Агустин Альмодовар, Эстер Гарсия, Диего Пахуэло
Оператор: Хосе Луис Алькайне
Композитор: Альберто Иглесиас

В ролях: Пенелопа Крус, Антонио Бандерас, Паз Вега, Бланка Суарес, Уго Силва, Хавьер Камара, Хосе Мария Язпик, Лола Дуэньяс, Сесилия Рот, Мигель Анхель Силвестри

Описание: Рейс лайнера, совершающего перелет в Мексику, начался как обычно: пассажиры пристегнули ремни, а командир корабля, включив автопилот, спокойно уснул. Но прямо над океаном оказалось, что самолет неисправен, исчезает интернет, и все гаджеты разом выходят из строя. Всех охватывает страх, ужас, отчаяние. Беспомощные пассажиры и экипаж, оказавшись пред лицом гибели, наконец-то должны стать сами собой. Так что несчастным на борту падающего самолета не остается ничего, как только петь и танцевать вслед за веселыми стюардами.

Изображение Изображение

Раздача группы: Изображение

Качество: BDRip (1080p)
Формат: Matroska
Видео: MPEG-4 AVC, 10.0 Mбит/с, 1920x1036, 23.976 кадр/с
Аудио: Русский (DTS, 48,0 КГц, 6 ch, 1510 Кбит/c)

MediaInfo
Общее
Уникальный идентификатор : 174975930942888740747905354762933441853 (0x83A32374686EFA558766C2E3CFA7153D)
Полное имя : C:\Фильмы\Ya.ochen.vozbuzden.2013.1080p.R.G.Daredevil.mkv
Формат : Matroska
Версия формата : Version 4 / Version 2
Размер файла : 7,26 Гбайт
Продолжительность : 1 ч. 30 м.
Общий поток : 11,5 Мбит/сек
Название фильма : CMEGRoup
Дата кодирования : UTC 2013-07-21 03:44:15
Программа кодирования : mkvmerge v6.1.0 ('Old Devil') built on Mar 2 2013 14:32:37
Библиотека кодирования : libebml v1.3.0 + libmatroska v1.4.0

Видео
Идентификатор : 1
Формат : AVC
Формат/Информация : Advanced Video Codec
Профиль формата : High@L4.1
Параметр CABAC формата : Да
Параметр ReFrames формата : 4 кадра
Идентификатор кодека : V_MPEG4/ISO/AVC
Продолжительность : 1 ч. 30 м.
Битрейт : 10000 Кбит/сек
Ширина : 1920 пикселей
Высота : 1036 пикселей
Соотношение сторон : 1,85:1
Режим частоты кадров : Постоянный
Частота кадров : 23,976 кадра/сек
Цветовое пространство : YUV
Субдискретизация насыщенности : 4:2:0
Битовая глубина : 8 бит
Тип развёртки : Прогрессивная
Бит/(Пиксели*Кадры) : 0.210
Размер потока : 6,16 Гбайт (85%)
Библиотека кодирования : x264 core 133 r2334 a3ac64b
Настройки программы : cabac=1 / ref=4 / deblock=1:-3:-3 / analyse=0x3:0x113 / me=umh / subme=11 / psy=1 / psy_rd=1.00:0.00 / mixed_ref=1 / me_range=32 / chroma_me=1 / trellis=2 / 8x8dct=1 / cqm=0 / deadzone=21,11 / fast_pskip=1 / chroma_qp_offset=-2 / threads=6 / lookahead_threads=1 / sliced_threads=0 / nr=0 / decimate=1 / interlaced=0 / bluray_compat=0 / constrained_intra=0 / bframes=5 / b_pyramid=2 / b_adapt=2 / b_bias=0 / direct=2 / weightb=0 / open_gop=0 / weightp=2 / keyint=240 / keyint_min=23 / scenecut=40 / intra_refresh=0 / rc_lookahead=40 / rc=2pass / mbtree=1 / bitrate=10000 / ratetol=1.0 / qcomp=0.60 / qpmin=0 / qpmax=69 / qpstep=4 / cplxblur=20.0 / qblur=0.5 / vbv_maxrate=62500 / vbv_bufsize=78125 / nal_hrd=none / ip_ratio=1.40 / aq=1:1.00 / zones=124822,129934,q=40
Язык : English
Default : Да
Forced : Нет

Аудио
Идентификатор : 2
Формат : DTS
Формат/Информация : Digital Theater Systems
Режим : 16
Параметр Endianness формата : Big
Идентификатор кодека : A_DTS
Продолжительность : 1 ч. 30 м.
Вид битрейта : Постоянный
Битрейт : 1509 Кбит/сек
Каналы : 6 каналов
Расположение каналов : Front: L C R, Side: L R, LFE
Частота : 48,0 КГц
Битовая глубина : 24 бит
Метод сжатия : С потерями
Размер потока : 975 Мбайт (13%)
Язык : Russian
Default : Да
Forced : Нет
Свернуть
Знаете ли вы, что...
Одну из ролей мог исполнить Альберто Сан Хуан.

Как и в большинстве фильмов Педро Альмодовара, в этом фильме в эпизодической роли снялся его брат Агустин Альмодовар. Он сыграл диспетчера аэропорта в конце фильма.

Название самолета Chavela Blanca — это намек на любимую певицу и друга Педро Альмодовара Чавелу Варгас, а также на еще одного его друга, Бланку Санчес. Название авиакомпании Peninsula написано сокращенно на крыле самолета как Pe, что является известным прозвищем Пенелопы Крус.

Это седьмой по счету фильм, в котором Антонио Бандерас работал с Педро Альмодоваром, и пятый, где он снимался с Пенелопой Крус. Однако все вместе они работали впервые.

Свернуть
Скриншоты
Изображение
Изображение
Изображение
Изображение
Свернуть
Не в сети
Профиль  
 Добавлено: 2013-07-22 14:53 (спустя 27 минут)
Модератор релиз-группы
Аватара пользователя
Стаж: 9 лет 1 месяц
Возраст: 97
Сообщений: 11660
Спасибок: 6532
Лайков: 269
Режиссер: Педро
там и половина героев педры :-D
_________________
Изображение
Не в сети
Профиль  
 Добавлено: 2013-07-22 21:36 (спустя 6 часов)
Аватара пользователя
Стаж: 7 лет 6 месяцев
Сообщений: 78
Лайков: 1
Судя по на ТыТрубе - вас ждёт ещё тот трешовый хардкор! Новый стиль, так сказать :"ПедроКино")))
Не в сети
Профиль  
 Добавлено: 2013-07-30 21:20 (спустя 7 дней)
Кинокомментатор
Аватара пользователя
Стаж: 9 лет 1 месяц
Сообщений: 1332
Лайков: 54
Гомофобам и людям не смеющимся над жёсткими шутками, только потому что есть гей-флёр))) - смотреть не стоит точно!) даже не пытайтесь...))
а людям которым интересно кино Альмадовара! комедия его!? милости просим) надо попробовать Испанский юмор от режисёра-трагика! интересно же) а то что геев много) так они щас в тренде) уже пора было привыкнуть) там ещё людей в эконом классе мышечным релаксантом накачали))) что б спали и проблем не было) круто же!) додуматься...) и затвитерить сразу надо всё) ну в общем приятного просмотра;)
8/10
_________________
Я ВКонтакте
Не в сети
Профиль  
 Добавлено: 2013-08-17 20:28 (спустя 17 дней)
Стаж: 6 лет 9 месяцев
Сообщений: 33
Спасибок: 3
Слабый фильм. Очень слабый. С предыдущим автором не соглашусь: максимум 4 из 10.
Не в сети
Профиль  
Начать новую темуОтветить на тему  [ Сообщений: 5 ] 
Вы не можете начинать темы
Вы не можете отвечать на сообщения
Вы не можете редактировать свои сообщения
Вы не можете удалять свои сообщения