Правила форума

  • В этом разделе создание новых тем Запрещено.
  • Для создания новых тем пользуйтесь Корневым разделом DVD и HD фильмы.
Начать новую темуОтветить на тему  [ Сообщений: 9 ] 
Торрент файл
Размер: 8.53 GB • Зарегистрирован: 3 года • Статус: Проверено
Скачан: 84 раза • Желающих скачать: 0 • Поблагодарили: 28 раз
 Раздают: 0  |  0 KB/s  ]   Качают: 0  |  0 KB/s  ] 
 Полного источника не было 1 час 21 минута 
Сообщения
 Добавлено: 2013-11-28 04:11
Аватара пользователя
Стаж: 9 лет 1 месяц
Сообщений: 7929
Спасибок: 122128
Лайков: 1191
Я плюю на ваши могилы 2 / I Spit On Your Grave 2

«Выжить, чтобы отомстить»

Изображение


Год выпуска: 2013
Страна: Изображение США
Жанр: ужасы, триллер, криминал
Продолжительность: 01:46:11
Субтитры: Английские
Перевод: Профессиональный (многоголосый, закадровый) [Лицензия] + Профессиональный (полное дублирование) [Чистый звук]


Режиссер: Стивен Р. Монро
Сценарий: Нил Элман, Томас Х. Фентон
Продюсер: Лиза М. Хансен, Пол Хертцберг, Билл Берри
Оператор: Дэмиэн Бромли
Композитор: Кори А. Джексон

В ролях: Джемма Даллендер, Джо Эбсолом, Явор Бахаров, Александр Алексеев, Мэри Стокли, Майкл Диксон, Валентин Пелка, Питер Сильверлиф, Георг Златарев

Описание: Красавица Кэти только что переехала в Нью-Йорк, чтобы сделать карьеру модели. Но девичьи мечты о роскошной жизни разбиваются: ее насилуют, пытают, а вскоре похищают и увозят в непонятном направлении. Кэти оказывается одна в чужой стране, где ее почти что похоронят заживо. Чудом избежав смерти, девушка решает жестоко отомстить обидчикам...

Изображение Изображение

Раздача группы: Изображение

Качество: BDRip (1080p)
Формат: Matroska
Видео: MPEG-4 AVC, 10 Мбит/с, 1920x800
Аудио №1: Русский (AC3, 48,0 КГц, 6 ch, 384 Кбит/c) Лицензия
Аудио №2: Русский (AC3, 48,0 КГц, 6 ch, 448 Кбит/c) Чистый звук
Аудио №3: Английский (AC3, 48,0 КГц, 6 ch, 640 Кбит/c)

MediaInfo
Общее
Уникальный идентификатор : 245191830207638752842485078017893433069 (0xB8763A921618941291FAA5BDFBCB7EED)
Полное имя : C:\Фильмы\I.Spit.On.Your.Grave.2.2013.BDRip.1080p.[R.G.Daredevil].mkv
Формат : Matroska
Версия формата : Version 2
Размер файла : 8,53 Гбайт
Продолжительность : 1 ч. 46 м.
Общий поток : 11,5 Мбит/сек
Дата кодирования : UTC 2013-11-23 12:21:56
Программа кодирования : mkvmerge v5.7.0 ('The Whirlwind') built on Jul 29 2012 15:12:35
Библиотека кодирования : libebml v1.2.3 + libmatroska v1.3.0

Видео
Идентификатор : 1
Формат : AVC
Формат/Информация : Advanced Video Codec
Профиль формата : High@L4.1
Параметр CABAC формата : Да
Параметр ReFrames формата : 5 кадров
Идентификатор кодека : V_MPEG4/ISO/AVC
Продолжительность : 1 ч. 46 м.
Битрейт : 10,0 Мбит/сек
Ширина : 1920 пикселей
Высота : 800 пикселей
Соотношение сторон : 2,40:1
Режим частоты кадров : Постоянный
Частота кадров : 23,976 кадра/сек
Цветовое пространство : YUV
Субдискретизация насыщенности : 4:2:0
Битовая глубина : 8 бит
Тип развёртки : Прогрессивная
Бит/(Пиксели*Кадры) : 0.273
Размер потока : 7,27 Гбайт (85%)
Библиотека кодирования : x264 core 120 r2164+656 2ff844c
Настройки программы : cabac=1 / ref=5 / deblock=1:-3:-3 / analyse=0x3:0x113 / me=umh / subme=11 / psy=1 / fade_compensate=0.00 / psy_rd=1.05:0.10 / mixed_ref=1 / me_range=48 / chroma_me=1 / trellis=2 / 8x8dct=1 / cqm=0 / deadzone=21,11 / fast_pskip=0 / chroma_qp_offset=-2 / threads=18 / sliced_threads=0 / nr=0 / decimate=1 / interlaced=0 / bluray_compat=0 / constrained_intra=0 / fgo=0 / bframes=6 / b_pyramid=2 / b_adapt=2 / b_bias=0 / direct=3 / weightb=1 / open_gop=0 / weightp=2 / keyint=250 / keyint_min=23 / scenecut=40 / intra_refresh=0 / rc_lookahead=40 / rc=2pass / mbtree=0 / bitrate=10041 / ratetol=2.0 / qcomp=0.70 / qpmin=0 / qpmax=69 / qpstep=4 / cplxblur=20.0 / qblur=0.5 / vbv_maxrate=40000 / vbv_bufsize=30000 / nal_hrd=none / ip_ratio=1.40 / pb_ratio=1.30 / aq=2:1.00
Язык : English
Default : Да
Forced : Да

Аудио #1
Идентификатор : 2
Формат : AC-3
Формат/Информация : Audio Coding 3
Расширение режима : CM (complete main)
Параметр Endianness формата : Big
Идентификатор кодека : A_AC3
Продолжительность : 1 ч. 46 м.
Вид битрейта : Постоянный
Битрейт : 384 Кбит/сек
Каналы : 6 каналов
Расположение каналов : Front: L C R, Side: L R, LFE
Частота : 48,0 КГц
Битовая глубина : 16 бит
Метод сжатия : С потерями
Размер потока : 292 Мбайт (3%)
Заголовок : Лицензия
Язык : Russian
Default : Да
Forced : Да

Аудио #2
Идентификатор : 3
Формат : AC-3
Формат/Информация : Audio Coding 3
Расширение режима : CM (complete main)
Параметр Endianness формата : Big
Идентификатор кодека : A_AC3
Продолжительность : 1 ч. 46 м.
Вид битрейта : Постоянный
Битрейт : 448 Кбит/сек
Каналы : 6 каналов
Расположение каналов : Front: L C R, Side: L R, LFE
Частота : 48,0 КГц
Битовая глубина : 16 бит
Метод сжатия : С потерями
Размер потока : 340 Мбайт (4%)
Заголовок : Чистый звук
Язык : Russian
Default : Нет
Forced : Нет

Аудио #3
Идентификатор : 4
Формат : AC-3
Формат/Информация : Audio Coding 3
Расширение режима : CM (complete main)
Параметр Endianness формата : Big
Идентификатор кодека : A_AC3
Продолжительность : 1 ч. 46 м.
Вид битрейта : Постоянный
Битрейт : 640 Кбит/сек
Каналы : 6 каналов
Расположение каналов : Front: L C R, Side: L R, LFE
Частота : 48,0 КГц
Битовая глубина : 16 бит
Метод сжатия : С потерями
Размер потока : 486 Мбайт (6%)
Язык : English
Default : Нет
Forced : Нет

Текст #1
Идентификатор : 5
Формат : UTF-8
Идентификатор кодека : S_TEXT/UTF8
Идентификатор кодека/Информация : UTF-8 Plain Text
Заголовок : Full
Язык : English
Default : Нет
Forced : Нет

Текст #2
Идентификатор : 6
Формат : UTF-8
Идентификатор кодека : S_TEXT/UTF8
Идентификатор кодека/Информация : UTF-8 Plain Text
Заголовок : SDH
Язык : English
Default : Нет
Forced : Нет

Текст #3
Идентификатор : 7
Формат : UTF-8
Идентификатор кодека : S_TEXT/UTF8
Идентификатор кодека/Информация : UTF-8 Plain Text
Заголовок : SDH-Colored
Язык : English
Default : Нет
Forced : Нет

Меню
00:00:00.000 : en:00:00:00.000
00:07:11.056 : en:00:07:11.056
00:15:08.491 : en:00:15:08.491
00:24:16.455 : en:00:24:16.455
00:36:33.108 : en:00:36:33.108
00:46:44.844 : en:00:46:44.844
00:59:19.306 : en:00:59:19.306
01:11:52.683 : en:01:11:52.683
01:17:31.981 : en:01:17:31.981
01:23:12.112 : en:01:23:12.112
01:29:12.430 : en:01:29:12.430
01:42:08.205 : en:01:42:08.205
Свернуть
Знаете ли вы, что...
Фильм запрещен к показу в кинотеатрах Украины.
Свернуть
Скриншоты
Изображение
Изображение
Изображение
Изображение
Свернуть
Не в сети
Профиль  
 Добавлено: 2013-11-28 22:09 (спустя 17 часов)
Аватара пользователя
Стаж: 8 лет
Возраст: 29
Сообщений: 60
Херня.
Не в сети
Профиль  
 Добавлено: 2013-11-29 18:50 (спустя 20 часов)
Аватара пользователя
Стаж: 7 лет
Возраст: 30
Сообщений: 507
Спасибок: 1931
Вторая часть намного слабее, чем первая. Так что в оценке фильма пожалуй поддержу предыдущего оратора!
_________________
Изображение
Не в сети
Профиль  
 Добавлено: 2013-11-29 20:16 (спустя 1 час 25 минут)
Стаж: 7 лет 5 месяцев
Сообщений: 103
Лайков: 4
фигня, я одну девку жестче насиловал, не сильно возбуждает.
Не в сети
Профиль  
 Добавлено: 2013-11-30 13:18 (спустя 17 часов)
Аватара пользователя
Стаж: 6 лет 4 месяца
Сообщений: 125
Спасибок: 104

viktor gregorian:

фигня, я одну девку жестче насиловал, не сильно возбуждает.
:ps_ih: ;;-)))
_________________
Изображение
Не в сети
Профиль  
 Добавлено: 2013-12-01 23:02 (спустя 1 день 9 часов)
Аватара пользователя
Стаж: 9 лет 1 месяц
Возраст: 31
Сообщений: 982
Спасибок: 1800
Лайков: 17
Неудачница какая-то
Не в сети
Профиль  
 Добавлено: 2014-02-10 22:00 (спустя 2 месяца 8 дней)
Стаж: 2 года 9 месяцев
Сообщений: 25
:'( :'( :'(
Не в сети
Профиль  
 Добавлено: 2014-02-11 21:23 (спустя 23 часа)
Аватара пользователя
Стаж: 6 лет 8 месяцев
Возраст: 30
Сообщений: 88
Лайков: 6
Согласен конечно первая часть получше,но в целом если закрыть глаза на некоторые ляпы фильм вполне хороший.Для коллекции думаю смотреть стоит .Это к примеру как человек-многоножка две части ,первая норма вторая похуже но тоже смотритель но.Зажрались просто.Из недавних ужастиков и новинок есть намного-намного хуже по игре актеров,съемке.сюжету и так далее.
Не в сети
Профиль  
 Добавлено: 2014-02-13 18:53 (спустя 1 день 21 час)
Аватара пользователя
Стаж: 3 года 2 месяца
Возраст: 26
Сообщений: 180
Спасибок: 95
Лайков: 3
Mahaon_ultra
где вы тут сюжет увидели? Сюжет здесь, абсолютная копия первой части.
_________________
forza juve
Не в сети
Профиль  
Начать новую темуОтветить на тему  [ Сообщений: 9 ] 
Вы не можете начинать темы
Вы не можете отвечать на сообщения
Вы не можете редактировать свои сообщения
Вы не можете удалять свои сообщения