Правила форума

  • В этом разделе создание новых тем Запрещено.
  • Для создания новых тем пользуйтесь Корневым разделом DVD и HD фильмы.
Начать новую темуОтветить на тему  [ 1 сообщение ] 
Торрент файл
Размер: 15.85 GB • Зарегистрирован: 5 лет 3 месяца • Статус: Проверено
Скачан: 101 раз • Желающих скачать: 0 • Поблагодарили: 23 раза
 Раздают: 0  |  0 KB/s  ]   Качают: 0  |  0 KB/s  ] 
 Полного источника не было 1 год 8 месяцев 
Сообщения
 Добавлено: 2011-08-23 18:48
Top-releaser
Аватара пользователя
Стаж: 6 лет 7 месяцев
Сообщений: 2078
Спасибок: 3229
Лайков: 9
Я, робот / I, Robot

Изображение

Год выпуска: 2004
Страна: США, Германия
Жанр: фантастика, боевик, триллер, детектив
Продолжительность: 01:54:43
Перевод:
  • Профессиональный (дублированный)
  • Профессиональный (многоголосый, закадровый)
  • Профессиональный (двухголосый, закадровый) [Tycoon-Studio]
  • Авторский одноголосый [А.Гаврилов]
  • Авторский одноголосый [Ю.Живов]

Режиссёр: Алекс Пройас
В ролях: Уилл Смит, Бриджет Мойнэан, Алан Тьюдик, Джеймс Кромуэлл, Брюс Гринвуд, Адриан Рикард, Чи МакБрайд, Джерри Вассерман, Фиона Хоган, Питер Шинкода, Терри Чен, Дэвид Нэйсом, Скотт Хейндл, Шарон Уилкинс, Крэйг Марч, Kyanna Cox, Даррен Мур, Аарон Дуглас, Шейла Дайсон, Бобби Л. Стюарт, Николя Кросби
Описание: Действие фильма происходит в будущем (2035 г.), где роботы являются обычными помощниками человека. Главный герой — полицейский, «не переваривающий» роботов, расследует дело об убийстве, в которое оказывается вовлечен робот.

Речь идет о возможном нарушении «Закона о Роботах» (робот никогда не поднимет руки на человека), что, в принципе, невозможно. Ситуация близка к катастрофической: если машины могут нарушать этот закон, то уже ничто не остановит их от захвата контроля над людьми, тем более, что человечество уже давно стало полностью зависимо от роботов…

ИзображениеИзображение

Раздача группы: Изображение
Качество: BDRip
Формат: MKV
Видео кодек: H.264
Аудио кодек: AC3, DTS
Видео: 1920x816 (2.35:1), 23.976 fps, 14.3 Mbps
Аудио #1: Русский DTS 5.1 48 kHz @ 768 kbps |Дубляж CEE|
Аудио #2: Русский DTS 5.1 48 kHz @ 1536 kbps |Многоголосый закадровый|
Аудио #3: Русский AC3 5.1 48 kHz @ 448 kbps |Двухголосый закадровый, Tycoon-Studio|
Аудио #4: Русский AC3 5.1 48 kHz @ 448 kbps |Авторский одноголосый, А.Гаврилов|
Аудио #5: Русский DTS 5.1 48 kHz @ 768 kbps |Авторский одноголосый, Ю.Живов|
Аудио #6: Английский DTS 5.1 48 kHz @ 1536 kbps |Оригинал|
Субтитры: Русские, Английские

Скриншоты
Изображение

Изображение

Изображение

Изображение
Свернуть

MediaInfo
Общее
Уникальный идентификатор : 222989954430332752367103133805132521558 (0xA7C24D94E9E65F9CB5BB3360259E2056)
Полное имя : I:\Я, робот\I.Robot.1080p.mkv
Формат : Matroska
Версия формата : Version 2
Размер файла : 15,8 Гбайт
Продолжительность : 1 ч. 54 м.
Общий поток : 19,8 Мбит/сек
Дата кодирования : UTC 2011-05-25 18:57:24
Программа кодирования : mkvmerge v4.6.0 ('Still Crazy After All These Years') сборка от Mar 10 2011 02:50:32
Библиотека кодирования : libebml v1.2.0 + libmatroska v1.1.0

Видео
Идентификатор : 1
Формат : AVC
Формат/Информация : Advanced Video Codec
Профиль формата : High@L4.1
Параметр CABAC формата : Да
Параметр ReFrames формата : 4 кадра
Идентификатор кодека : V_MPEG4/ISO/AVC
Продолжительность : 1 ч. 54 м.
Битрейт : 14,3 Мбит/сек
Ширина : 1920 пикселей
Высота : 816 пикселей
Соотношение сторон : 2,35:1
Частота кадров : 23,976 кадра/сек
Цветовое пространство : YUV
Субдискретизация насыщенности : 4:2:0
Битовая глубина : 8 бит
Тип развёртки : Прогрессивная
Бит/(Пиксели*Кадры) : 0.382
Размер потока : 11,2 Гбайт (71%)
Библиотека кодирования : x264 core 98 r1649 c54c47d
Настройки программы : cabac=1 / ref=4 / deblock=1:-3:-3 / analyse=0x3:0x113 / me=umh / subme=9 / psy=1 / psy_rd=1.10:0.00 / mixed_ref=1 / me_range=32 / chroma_me=1 / trellis=2 / 8x8dct=1 / cqm=0 / deadzone=21,11 / fast_pskip=0 / chroma_qp_offset=-4 / threads=6 / sliced_threads=0 / nr=0 / decimate=0 / interlaced=0 / constrained_intra=0 / bframes=6 / b_pyramid=2 / b_adapt=2 / b_bias=0 / direct=3 / weightb=1 / weightp=2 / keyint=250 / keyint_min=25 / scenecut=40 / intra_refresh=0 / rc_lookahead=48 / rc=2pass / mbtree=1 / bitrate=14335 / ratetol=1.0 / qcomp=0.60 / qpmin=10 / qpmax=51 / qpstep=4 / cplxblur=20.0 / qblur=0.5 / ip_ratio=1.40 / aq=1:0.80
Язык : English

Аудио #1
Идентификатор : 2
Формат : DTS
Формат/Информация : Digital Theater Systems
Идентификатор кодека : A_DTS
Продолжительность : 1 ч. 54 м.
Вид битрейта : Постоянный
Битрейт : 755 Кбит/сек
Каналы : 6 каналов
Расположение каналов : Front: L C R, Side: L R, LFE
Частота : 48,0 КГц
Битовая глубина : 24 бит
Метод сжатия : С потерями
Размер потока : 619 Мбайт (4%)
Заголовок : DTS 5.1 [Дубляж, Blu-ray CEE]
Язык : Russian

Аудио #2
Идентификатор : 3
Формат : DTS
Формат/Информация : Digital Theater Systems
Идентификатор кодека : A_DTS
Продолжительность : 1 ч. 54 м.
Вид битрейта : Постоянный
Битрейт : 1510 Кбит/сек
Каналы : 6 каналов
Расположение каналов : Front: L C R, Side: L R, LFE
Частота : 48,0 КГц
Битовая глубина : 24 бит
Метод сжатия : С потерями
Размер потока : 1,21 Гбайт (8%)
Заголовок : DTS 5.1 [Многоголосый закадровый]
Язык : Russian

Аудио #3
Идентификатор : 4
Формат : AC-3
Формат/Информация : Audio Coding 3
Расширение режима : CM (complete main)
Идентификатор кодека : A_AC3
Продолжительность : 1 ч. 54 м.
Вид битрейта : Постоянный
Битрейт : 448 Кбит/сек
Каналы : 6 каналов
Расположение каналов : Front: L C R, Side: L R, LFE
Частота : 48,0 КГц
Битовая глубина : 16 бит
Метод сжатия : С потерями
Размер потока : 368 Мбайт (2%)
Заголовок : AC3 5.1 [Tycoon-Studio]
Язык : Russian

Аудио #4
Идентификатор : 5
Формат : AC-3
Формат/Информация : Audio Coding 3
Расширение режима : CM (complete main)
Идентификатор кодека : A_AC3
Продолжительность : 1 ч. 54 м.
Вид битрейта : Постоянный
Битрейт : 448 Кбит/сек
Каналы : 6 каналов
Расположение каналов : Front: L C R, Side: L R, LFE
Частота : 48,0 КГц
Битовая глубина : 16 бит
Метод сжатия : С потерями
Размер потока : 368 Мбайт (2%)
Заголовок : AC3 5.1 [AVO.Gavrilov]
Язык : Russian

Аудио #5
Идентификатор : 6
Формат : DTS
Формат/Информация : Digital Theater Systems
Идентификатор кодека : A_DTS
Продолжительность : 1 ч. 54 м.
Вид битрейта : Постоянный
Битрейт : 755 Кбит/сек
Каналы : 6 каналов
Расположение каналов : Front: L C R, Side: L R, LFE
Частота : 48,0 КГц
Битовая глубина : 24 бит
Метод сжатия : С потерями
Размер потока : 619 Мбайт (4%)
Заголовок : DTS 5.1 [AVO.Zhivov]
Язык : Russian

Аудио #6
Идентификатор : 7
Формат : DTS
Формат/Информация : Digital Theater Systems
Идентификатор кодека : A_DTS
Продолжительность : 1 ч. 54 м.
Вид битрейта : Постоянный
Битрейт : 1510 Кбит/сек
Каналы : 6 каналов
Расположение каналов : Front: L C R, Side: L R, LFE
Частота : 48,0 КГц
Битовая глубина : 24 бит
Метод сжатия : С потерями
Размер потока : 1,21 Гбайт (8%)
Заголовок : DTS 5.1 [Оригинал ]
Язык : English

Текст #1
Идентификатор : 8
Формат : UTF-8
Идентификатор кодека : S_TEXT/UTF8
Идентификатор кодека/Информация : UTF-8 Plain Text
Язык : Russian

Текст #2
Идентификатор : 9
Формат : UTF-8
Идентификатор кодека : S_TEXT/UTF8
Идентификатор кодека/Информация : UTF-8 Plain Text
Язык : English
Свернуть
Не в сети
Профиль  
Начать новую темуОтветить на тему  [ 1 сообщение ] 
Вы не можете начинать темы
Вы не можете отвечать на сообщения
Вы не можете редактировать свои сообщения
Вы не можете удалять свои сообщения