Правила форума

  • В этом разделе создание новых тем Запрещено.
  • Для создания новых тем пользуйтесь Корневым разделом DVD и HD фильмы.
Начать новую темуОтветить на тему  [ 1 сообщение ] 
Торрент файл
Размер: 11.64 GB • Зарегистрирован: 3 года 4 месяца • Статус: Проверено
Скачан: 7 раз • Желающих скачать: 0 • Поблагодарили: 8 раз
 Раздают: 0  |  0 KB/s  ]   Качают: 0  |  0 KB/s  ] 
 Полного источника не было 3 года 2 месяца 
Сообщения
 Добавлено: 2013-07-14 18:42
Модератор релиз-группы
Аватара пользователя
Стаж: 7 лет 8 месяцев
Возраст: 29
Сообщений: 9789
Спасибок: 23730
Лайков: 103
Изображение

Я – Сэм
I Am Sam


Год выпуска: 2001
Страна: США
Слоган: «love is all you need»
Жанр: драмаслова
Продолжительность: 02:12:18
Перевод: Профессиональный (многоголосый, закадровый)
Режиссер: Джесси Нельсон
Сценарий: Кристин Джонсон, Джесси Нельсон
Продюсер: Маршалл Херсковиц, Джесси Нельсон, Ричард Соломон, Эдвард Цвик, Лиза Кэмпбелл
Оператор: Эллиот Дэвис
Композитор: Джон Пауэлл
В ролях: Шон Пенн, Мишель Пфайффер, Дакота Фаннинг, Дайэнн Уист, Лоретта Дивайн, Ричард Шифф, Лора Дерн, Брэд Силверман, Джозеф Розенберг, Стэнли ДеСантис, Даг Хатчисон, Розалинд Чао
Бюджет: $22 000 000
Сборы в США: $40 311 852
Сборы в мире: $97 818 139
Мировая премьера: 3 декабря 2001
Релиз на DVD: 4 августа 2011, «CP-Digital»
Описание: Сэм Доусон, 40-летний мужчина с уровнем интеллекта 7-летнего ребёнка. Он работает посудомойщиком, что, в общем-то, не требует от него больших умственных способностей. Но ему трудно было бы выжить с такими данными, если бы не дочь, плод случайной связи. Люси выросла вполне нормальным человеком и могла бы заботиться о своём отце. Но местная социальная служба забрала её у отца ещё в глубоком детстве. И вот теперь Сэм хочет вернуть свою дочь. Для ведения этого дела он нанимает адвоката Риту Харрисон. По мере работы над этим делом Рита сама получает несколько уроков о том, что значит быть родителем...

Изображение User Rating: 8.173 (29 682)
Изображение User Rating: 7.40 (82 662)
MPAA: PG-13 - Детям до 13 лет просмотр не желателен
Раздача группы: Изображение
Качество: BDRip, 1080p
Формат: MKV
Видео: AVC; 1920x1040 (16:9); 10063 Kbps; 23,976 fps; 0,210 bit/pixel
Аудио №1: русский; AC3; 384 Kbps; CBR; 6 ch
Аудио №2: русский; AC3; 384 Kbps; CBR; 6 ch
Аудио №3: английский; DTS; 1510 Kbps; CBR; 6 ch; 16 bit

Субтитры №1: русские
Субтитры №2: русские
Субтитры №3: английские

mediainfo
Общее
Уникальный идентификатор : 187523958399116014893297843452955691924 (0x8D13CCF92C75439FA28833DFFCAD8B94)
Полное имя : D:\TORRENT\Ia.sem.2001.x264.BDRip.(1080p).mkv
Формат : Matroska
Размер файла : 11,6 Гбайт
Продолжительность : 2 ч. 12 м.
Общий поток : 12,6 Мбит/сек
Дата кодирования : UTC 2010-07-15 05:49:14
Программа кодирования : mkvmerge v3.4.0 ('Rapunzel') built on May 15 2010 09:38:20
Библиотека кодирования : libebml v0.8.0 + libmatroska v0.9.0

Видео
Идентификатор : 1
Формат : AVC
Формат/Информация : Advanced Video Codec
Профиль формата : High@L4.1
Параметр CABAC формата : Да
Параметр ReFrames формата : 4 кадра
Параметры GOP формата : M=4, N=43
Идентификатор кодека : V_MPEG4/ISO/AVC
Продолжительность : 2 ч. 12 м.
Битрейт : 10,3 Мбит/сек
Ширина : 1920 пикс.
Высота : 1040 пикс.
Соотношение сторон : 16:9
Частота кадров : 23,976 кадр/сек
Цветовое пространство : YUV
Подвыборка цветности : 4:2:0
Битовая глубина : 8 бит
Тип развёртки : Прогрессивная
Бит/(Пиксели*Кадры) : 0.216
Размер потока : 9,30 Гбайт (80%)
Библиотека кодирования : x264 core 102 r1666 d058f37
Настройки программы : cabac=1 / ref=4 / deblock=1:0:0 / analyse=0x3:0x113 / me=umh / subme=9 / psy=1 / psy_rd=1.00:0.00 / mixed_ref=1 / me_range=16 / chroma_me=1 / trellis=1 / 8x8dct=1 / cqm=0 / deadzone=21,11 / fast_pskip=0 / chroma_qp_offset=-2 / threads=20 / sliced_threads=0 / nr=0 / decimate=1 / interlaced=0 / constrained_intra=0 / bframes=3 / b_pyramid=2 / b_adapt=1 / b_bias=0 / direct=1 / weightb=1 / open_gop=0 / weightp=2 / keyint=250 / keyint_min=25 / scenecut=40 / intra_refresh=0 / rc_lookahead=40 / rc=2pass / mbtree=1 / bitrate=10321 / ratetol=1.0 / qcomp=0.60 / qpmin=10 / qpmax=51 / qpstep=4 / cplxblur=20.0 / qblur=0.5 / ip_ratio=1.40 / aq=1:1.00
Язык : English

Аудио #1
Идентификатор : 2
Формат : AC-3
Формат/Информация : Audio Coding 3
Расширение режима : CM (complete main)
Идентификатор кодека : A_AC3
Продолжительность : 2 ч. 12 м.
Вид битрейта : Постоянный
Битрейт : 384 Кбит/сек
Каналы : 6 каналов
Расположение каналов : Front: L C R, Side: L R, LFE
Частота : 48,0 КГц
Битовая глубина : 16 бит
Метод сжатия : С потерями
Размер потока : 363 Мбайт (3%)
Заголовок : MVO Universal Pictures Rus AC3 5.1 384 kbps
Язык : Russian

Аудио #2
Идентификатор : 3
Формат : AC-3
Формат/Информация : Audio Coding 3
Расширение режима : CM (complete main)
Идентификатор кодека : A_AC3
Продолжительность : 2 ч. 12 м.
Вид битрейта : Постоянный
Битрейт : 384 Кбит/сек
Каналы : 6 каналов
Расположение каналов : Front: L C R, Side: L R, LFE
Частота : 48,0 КГц
Битовая глубина : 16 бит
Метод сжатия : С потерями
Размер потока : 363 Мбайт (3%)
Заголовок : MVO R1 AC3 5.1 384 kbps
Язык : Russian

Аудио #3
Идентификатор : 4
Формат : DTS
Формат/Информация : Digital Theater Systems
Идентификатор кодека : A_DTS
Продолжительность : 2 ч. 12 м.
Вид битрейта : Постоянный
Битрейт : 1510 Кбит/сек
Каналы : 6 каналов
Расположение каналов : Front: L C R, Side: L R, LFE
Частота : 48,0 КГц
Битовая глубина : 16 бит
Метод сжатия : С потерями
Размер потока : 1,40 Гбайт (12%)
Заголовок : DTS 5.1 1536 kbps
Язык : English

Текст #1
Идентификатор : 5
Формат : UTF-8
Идентификатор кодека : S_TEXT/UTF8
Идентификатор кодека/Информация : UTF-8 Plain Text
Заголовок : Universal Pictures Rus
Язык : Russian

Текст #2
Идентификатор : 6
Формат : UTF-8
Идентификатор кодека : S_TEXT/UTF8
Идентификатор кодека/Информация : UTF-8 Plain Text
Заголовок : E. Klavdienko
Язык : Russian

Текст #3
Идентификатор : 7
Формат : UTF-8
Идентификатор кодека : S_TEXT/UTF8
Идентификатор кодека/Информация : UTF-8 Plain Text
Язык : English


Свернуть
"Знаете ли Вы, что..."
  • Кинокомпания «New Line Cinema» долго решала, как назвать этот фильм. В конце концов, остановились на «I am Sam», что отсылает к книге доктора Суэсса «Зеленые яйца и ветчина».
  • Так как главный герой - большой поклонник «Битлз», то саундтрэк составили песни ливерпульской четверки в исполнении музыкальных звезд сегодняшнего дня таких как Ник Кейв, Сара МакЛахлан, Шерил Кроу, Эдди Веддер, «The Wallflowers» и др.
Свернуть
Скриншоты

Изображение
Изображение
Изображение
Изображение
Изображение
Изображение
Изображение
Свернуть


Тема поднималась пользователем volkov2009 2013-07-14 18:42.
Не в сети
Профиль  
Начать новую темуОтветить на тему  [ 1 сообщение ] 
Вы не можете начинать темы
Вы не можете отвечать на сообщения
Вы не можете редактировать свои сообщения
Вы не можете удалять свои сообщения