Правила форума

  • В этом разделе создание новых тем Запрещено.
  • Для создания новых тем пользуйтесь Корневым разделом DVD и HD фильмы.
Начать новую темуОтветить на тему  [ Сообщений: 2 ] 
Торрент файл
Размер: 14.48 GB • Зарегистрирован: 5 лет 3 месяца • Статус: T Временный релиз
Скачан: 6 раз • Желающих скачать: 0 • Поблагодарили: 3 раза
 Раздают: 0  |  0 KB/s  ]   Качают: 0  |  0 KB/s  ] 
 Полного источника не было 3 года 2 месяца 
Сообщения
 Добавлено: 2011-08-20 15:10
Книголюб
Аватара пользователя
Стаж: 7 лет 2 месяца
Сообщений: 2823
Спасибок: 48827
Лайков: 73
Я видел Дьявола
Akmareul boatda
Изображение


Год выпуска: 2010
Страна: Корея Южная
Слоган: «Зло живет внутри»
Жанр: триллер, драма, криминал
Продолжительность: 02:24:02
Перевод: Профессиональный (одноголосый закадровый)

Режиссёр: Ким Чжи Ун
В ролях: Мин-Сик Чои, Ли Бён Хон, Гук-хван Чон
Описание: Специальный агент полиции идет по следу серийного убийцы, убившего его невесту, которая ждала ребенка. Желание мести стало для несчастного целью его жизни. При этом он совершенно не задумывается о средствах в ее достижении — стирается граница между добром и злом, льется кровь, в любую минуту охотник сам может стать жертвой.
Мировая премьера: 12 августа 2010
Премьера в России: 14 июля 2011, «Кино без границ»
Изображение 7.560 1 237

Качество: BDRip 1080
Формат: MKV
Видео кодек: H264 (AVC)
Аудио кодек: AC3 (Dolby Digital)
Видео: 11,6 Мбит/сек 1920 x 1040 (1.846) at 23.976 fps, 0.242 Bits/Pixel
Аудио#1: Ю.Сербин DTS at 1510 Кбит/сек 6 канала(ов), 48,0 КГц
Аудио#2: Оригинал DTS at 1510 Кбит/сек 6 канала(ов),
Аудио#3: Ю.Сербин AC-3 at 640 Кбит/сек 6 канала(ов), 48,0 КГц (Отдельным файлом)
Аудио#4: Оригинал AC-3 at 640 Кбит/сек 6 канала(ов), 48,0 КГц (Отдельным файлом)
MediaInfo
General
Unique ID : 222736961505915677508923588263125124639 (0xA7919411469779C59FF28DDE08DB061F)
Complete name : I:\1.08\Akmareul boattda\Akmareul_boattda_Rip1080_HDR.mkv
Format : Matroska
File size : 14.5 GiB
Duration : 2h 22mn
Overall bit rate : 14.6 Mbps
Movie name : I Saw The Devil / Akmareul boattda_Rip1080_HDReactor.org
Encoded date : UTC 2011-08-11 03:57:02
Writing application : mkvmerge v3.4.0 ('Rapunzel') сборка от May 15 2010 09:38:20
Writing library : libebml v0.8.0 + libmatroska v0.9.0

Video
ID : 1
Format : AVC
Format/Info : Advanced Video Codec
Format profile : High@L4.1
Format settings, CABAC : Yes
Format settings, ReFrames : 4 frames
Codec ID : V_MPEG4/ISO/AVC
Duration : 2h 22mn
Bit rate : 11.6 Mbps
Width : 1 920 pixels
Height : 1 040 pixels
Display aspect ratio : 16:9
Frame rate : 23.976 fps
Color space : YUV
Chroma subsampling : 4:2:0
Bit depth : 8 bits
Scan type : Progressive
Bits/(Pixel*Frame) : 0.242
Stream size : 11.2 GiB (77%)
Writing library : x264 core 115 r1995 c1e60b9
Encoding settings : cabac=1 / ref=4 / deblock=1:-3:-3 / analyse=0x3:0x113 / me=umh / subme=10 / psy=1 / psy_rd=1.00:0.10 / mixed_ref=1 / me_range=32 / chroma_me=1 / trellis=2 / 8x8dct=1 / cqm=0 / deadzone=21,11 / fast_pskip=0 / chroma_qp_offset=-2 / threads=6 / sliced_threads=0 / slices=4 / nr=0 / decimate=1 / interlaced=0 / bluray_compat=0 / constrained_intra=0 / bframes=7 / b_pyramid=2 / b_adapt=2 / b_bias=0 / direct=1 / weightb=1 / open_gop=0 / weightp=2 / keyint=250 / keyint_min=23 / scenecut=40 / intra_refresh=0 / rc_lookahead=40 / rc=2pass / mbtree=0 / bitrate=11568 / ratetol=1.0 / qcomp=0.60 / qpmin=10 / qpmax=51 / qpstep=4 / cplxblur=20.0 / qblur=0.5 / vbv_maxrate=50000 / vbv_bufsize=50000 / nal_hrd=none / ip_ratio=1.40 / pb_ratio=1.30 / aq=1:1.00
Language : English

Audio #1
ID : 2
Format : DTS
Format/Info : Digital Theater Systems
Codec ID : A_DTS
Duration : 2h 22mn
Bit rate mode : Constant
Bit rate : 1 510 Kbps
Channel(s) : 6 channels
Channel positions : Front: L C R, Side: L R, LFE
Sampling rate : 48.0 KHz
Bit depth : 24 bits
Compression mode : Lossy
Stream size : 1.50 GiB (10%)
Title : Одноголосый закадровый, Ю.Сербин
Language : Russian

Audio #2
ID : 3
Format : DTS
Format/Info : Digital Theater Systems
Codec ID : A_DTS
Duration : 2h 22mn
Bit rate mode : Constant
Bit rate : 1 510 Kbps
Channel(s) : 6 channels
Channel positions : Front: L C R, Side: L R, LFE
Sampling rate : 48.0 KHz
Bit depth : 24 bits
Compression mode : Lossy
Stream size : 1.50 GiB (10%)
Language : Korean

Menu
00:00:00.000 : en:00:00:00.000
00:09:44.166 : en:00:09:44.166
00:14:13.394 : en:00:14:13.394
00:19:52.524 : en:00:19:52.524
00:23:27.405 : en:00:23:27.405
00:36:21.762 : en:00:36:21.762
00:45:24.930 : en:00:45:24.930
00:56:03.109 : en:00:56:03.109
01:02:09.559 : en:01:02:09.559
01:13:04.546 : en:01:13:04.546
01:17:05.787 : en:01:17:05.787
01:27:45.260 : en:01:27:45.260
01:40:43.287 : en:01:40:43.287
01:49:49.291 : en:01:49:49.291
02:06:36.005 : en:02:06:36.005
02:19:35.075 : en:02:19:35.075


Свернуть


Скриншоты
Изображение
Изображение
Изображение
Свернуть
Не в сети
Профиль  
 Добавлено: 2011-08-20 22:16 (спустя 7 часов)
Аватара пользователя
Стаж: 8 лет 3 месяца
Возраст: 43
Сообщений: 3290
Спасибок: 21012
Лайков: 3
coldun
В этот раздел на прямую релизить запрещено, будьте внимательней :)
_________________
Изображение
Не в сети
Профиль  
Начать новую темуОтветить на тему  [ Сообщений: 2 ] 
Вы не можете начинать темы
Вы не можете отвечать на сообщения
Вы не можете редактировать свои сообщения
Вы не можете удалять свои сообщения