Правила форума

  • В этом разделе создание новых тем Запрещено.
  • Для создания новых тем пользуйтесь Корневым разделом DVD и HD фильмы.
Начать новую темуОтветить на тему  [ 1 сообщение ] 
Торрент файл
Размер: 7.72 GB • Зарегистрирован: 2 года • Статус: T Временный релиз
Скачан: 39 раз • Желающих скачать: 0 • Поблагодарили: 21 раз
 Раздают: 0  |  0 KB/s  ]   Качают: 0  |  0 KB/s  ] 
 Полного источника не было 1 день 10 часов 
Сообщения
 Добавлено: 2014-11-10 19:32
Аватара пользователя
Стаж: 3 года 6 месяцев
Сообщений: 175
Спасибок: 4258
Лайков: 29
Ярость: Смертная казнь / Rampage: Capital Punishment

Изображение


Год выпуска: 2014
Страна: Канада, Германия (Boll Kino Beteiligungs GmbH & Co. KG)
Жанр: Боевик, Триллер, Криминал
Продолжительность: 01:32:53
Перевод: Александр Харченко (Ненормативная лексика)
Субтитры: Нет

Режиссёр: Уве Болл
Продюсер: Уве Болл, Брендан Флетчер
В ролях: Брендан Флетчер, Михаэлла Манн, Нэйтан Лефельдт, Брюс Блэйн, Майк Допуд, Локлин Манро, Михаэла Росс, Джон Сэмпсон, Дэн Захари, Мэтт Фрюэр
Описание: Билл Уильямсон наносит новый удар. Спустя два года он берет в заложники персонал телеканала с целью воплотить еще один гениальный план…
Изображение
Изображение

Качество: BDRip [1080p]
Формат: MKV
Видео кодек: AVC/H.264
Аудио кодек: AC3 (Dolby Digital)
Видео: MPEG-4 AVC/H.264, 1920x1080 (16:9), 23,976 fps, ~11 Mbps, 0.221 bit/pixel
Аудио #1: 48 kHz, AC-3, 6 ch, (Front: L C R, Side: L R), LFE ~448 kbps avg | Русский VO
Аудио #2: 48 kHz, AC-3, 6 ch, (Front: L C R, Side: L R), LFE ~448 kbps avg | Английский

Изображение
MediaInfo
General
Unique ID : 179650100397714569621509343442435180892 (0x872759CD2A22755AA20CB80E3C3A095C)
Complete name : I:\Фильмы\Rampage.2.Capital.Punishment.2014.1080p.mkv
Format : Matroska
Format version : Version 4 / Version 2
File size : 7.72 GiB
Duration : 1h 32mn
Overall bit rate : 11.9 Mbps
Encoded date : UTC 2014-10-14 16:25:18
Writing application : mkvmerge v7.0.0 ('Where We Going') 32bit built on Jun 9 2014 15:08:34
Writing library : libebml v1.3.0 + libmatroska v1.4.1
DURATION : 01:32:53.056000000
NUMBER_OF_FRAMES : 174158
NUMBER_OF_BYTES : 312091136
_STATISTICS_WRITING_APP : mkvmerge v7.0.0 ('Where We Going') 32bit built on Jun 9 2014 15:08:34
_STATISTICS_WRITING_DATE_UTC : 2014-10-14 16:25:18
_STATISTICS_TAGS : BPS DURATION NUMBER_OF_FRAMES NUMBER_OF_BYTES

Video
ID : 1
Format : AVC
Format/Info : Advanced Video Codec
Format profile : High@L4.1
Format settings, CABAC : Yes
Format settings, ReFrames : 4 frames
Codec ID : V_MPEG4/ISO/AVC
Duration : 1h 32mn
Bit rate : 11.0 Mbps
Width : 1 920 pixels
Height : 1 080 pixels
Display aspect ratio : 16:9
Frame rate mode : Constant
Frame rate : 23.976 fps
Color space : YUV
Chroma subsampling : 4:2:0
Bit depth : 8 bits
Scan type : Progressive
Bits/(Pixel*Frame) : 0.221
Stream size : 6.98 GiB (90%)
Writing library : x264 core 142 r2431+42 c69a006 tMod [8-bit@all X86_64]
Encoding settings : cabac=1 / ref=4 / deblock=1:-3:-3 / analyse=0x3:0x113 / me=umh / subme=11 / psy=1 / fade_compensate=0.00 / psy_rd=1.00:0.00 / mixed_ref=1 / me_range=64 / chroma_me=1 / trellis=2 / 8x8dct=1 / cqm=0 / deadzone=21,11 / fast_pskip=0 / chroma_qp_offset=-2 / threads=48 / lookahead_threads=4 / sliced_threads=0 / nr=0 / decimate=0 / interlaced=0 / bluray_compat=0 / constrained_intra=0 / fgo=0 / bframes=8 / b_pyramid=2 / b_adapt=2 / b_bias=0 / direct=3 / weightb=1 / open_gop=0 / weightp=2 / keyint=360 / keyint_min=2 / scenecut=40 / intra_refresh=0 / rc_lookahead=60 / rc=2pass / mbtree=0 / bitrate=11000 / ratetol=1.0 / qcomp=0.70 / qpmin=0:0:0 / qpmax=69:69:69 / qpstep=4 / cplxblur=20.0 / qblur=0.5 / vbv_maxrate=50000 / vbv_bufsize=45000 / nal_hrd=none / filler=0 / ip_ratio=1.23 / pb_ratio=1.15 / aq=1:0.80 / aq-sensitivity=10.00 / aq-factor=1.00:1.00:1.00 / aq2=0 / aq3=0
Default : Yes
Forced : No
DURATION : 01:32:53.026000000
NUMBER_OF_FRAMES : 133619
NUMBER_OF_BYTES : 7660314626
_STATISTICS_WRITING_APP : mkvmerge v7.0.0 ('Where We Going') 32bit built on Jun 9 2014 15:08:34
_STATISTICS_WRITING_DATE_UTC : 2014-10-14 16:25:18
_STATISTICS_TAGS : BPS DURATION NUMBER_OF_FRAMES NUMBER_OF_BYTES

Audio #1
ID : 2
Format : AC-3
Format/Info : Audio Coding 3
Mode extension : CM (complete main)
Format settings, Endianness : Big
Codec ID : A_AC3
Duration : 1h 32mn
Bit rate mode : Constant
Bit rate : 448 Kbps
Channel(s) : 6 channels
Channel positions : Front: L C R, Side: L R, LFE
Sampling rate : 48.0 KHz
Bit depth : 16 bits
Compression mode : Lossy
Stream size : 298 MiB (4%)
Language : Russian
Default : Yes
Forced : No

Audio #2
ID : 3
Format : AC-3
Format/Info : Audio Coding 3
Mode extension : CM (complete main)
Format settings, Endianness : Big
Codec ID : A_AC3
Duration : 1h 32mn
Bit rate mode : Constant
Bit rate : 448 Kbps
Channel(s) : 6 channels
Channel positions : Front: L C R, Side: L R, LFE
Sampling rate : 48.0 KHz
Bit depth : 16 bits
Compression mode : Lossy
Stream size : 298 MiB (4%)
Language : English
Default : No
Forced : No
Свернуть
Скриншоты
Изображение
Изображение
Изображение
Свернуть
Не в сети
Профиль  
Начать новую темуОтветить на тему  [ 1 сообщение ] 
Вы не можете начинать темы
Вы не можете отвечать на сообщения
Вы не можете редактировать свои сообщения
Вы не можете удалять свои сообщения