Правила форума

  • В этом разделе создание новых тем Запрещено.
  • Для создания новых тем пользуйтесь Корневым разделом DVD и HD фильмы.
Начать новую темуОтветить на тему  [ 1 сообщение ] 
Торрент файл
Размер: 3.62 GB • Зарегистрирован: 4 года • Статус: Проверено
Скачан: 40 раз • Желающих скачать: 0 • Поблагодарили: 9 раз
 Раздают: 0  |  0 KB/s  ]   Качают: 0  |  0 KB/s  ] 
 Полного источника не было 2 года 2 месяца 
Сообщения
 Добавлено: 2012-12-01 23:21
Руководитель релиз-группы
Аватара пользователя
Стаж: 7 лет 4 месяца
Возраст: 31
Сообщений: 3407
Спасибок: 46728
Лайков: 5
Изображение

Явление
The Apparition


Год выпуска: 2012
Страна: США
Слоган: «Поверишь - умрешь»
Жанр: ужасы, триллер
Продолжительность: 01:22:25
Перевод: Профессиональный (полное дублирование) [лицензия]
Режиссер: Тодд Линкольн
Сценарий: Тодд Линкольн
Продюсер: Алекс Хейнеман, Тодд Линкольн, Эндрю Рона, Джоэл Силвер, Дэниэл Альтер
Оператор: Дэниэл Перл
Композитор: Томэндэнди
В ролях: Эшли Грин, Себастиан Стэн, Том Фелтон, Джулианна Гуилл, Люк Паскуалино, Рик Гомез, Анна Кларк, Тим Уильямс, Марти Матулис, Сюзанн Форд, Мелисса Голдберг, Джон Грэйди
Бюджет: $17 000 000
Сборы в США: $4 936 819
Сборы в России: $2 640 498
Сборы в мире: $9 627 492
Описание: Когда в их доме начинают происходить странные пугающие события, молодые люди Келли и Бен выясняют, что их преследует потусторонняя сущность, случайно вызванная во время парапсихологического эксперимента в университете. Страшное нечто питается их страхами и истязает их, куда бы они ни бежали. Последняя надежда молодых людей - на эксперта по паранормальным явлениям, но может статься, что спасать их жизни от пугающей потусторонней силы уже слишком поздно - даже с его помощью...
Изображение
MPAA: Изображение
Мировая премьера: 23 августа 2012
Релиз на DVD: 10 января 2013, «CP Дистрибуция»
Релиз на Blu-ray: 10 января 2013, «CP Дистрибуция»
Релиз: Изображение Раздача группы: Изображение
Качество: BDRip, 720p
Формат: Matroska
Видео: AVC; 1280x534 (2.35:1); 4274 Kbps; 23,976 fps; 0,261 bit/pixel
Аудио №1: AC3; 384 Kbps; CBR; 6 ch Russian
Аудио №2: DTS; 1509 Kbps; CBR; 6 ch; 24 bit English
Субтитры: русские, английские
Изображение
mediainfo
Формат : Matroska
Версия формата : Version 2
Размер файла : 3,62 Гбайт
Продолжительность : 1 ч. 22 м.
Общий поток : 6294 Кбит/сек
Название фильма : IRONCLUB
Дата кодирования : UTC 2012-12-01 17:00:03
Программа кодирования : mkvmerge v4.9.1 ('Ich will') сборка от Jul 11 2011 23:53:15
Библиотека кодирования : libebml v1.2.1 + libmatroska v1.1.1

Видео
Идентификатор : 1
Формат : AVC
Формат/Информация : Advanced Video Codec
Профиль формата : High@L4.1
Параметр CABAC формата : Да
Параметр ReFrames формата : 12 кадров
Идентификатор кодека : V_MPEG4/ISO/AVC
Продолжительность : 1 ч. 22 м.
Битрейт : 4400 Кбит/сек
Ширина : 1280 пикселей
Высота : 534 пикселя
Соотношение сторон : 2,40:1
Частота кадров : 23,976 кадра/сек
Цветовое пространство : YUV
Субдискретизация насыщенности : 4:2:0
Битовая глубина : 8 бит
Тип развёртки : Прогрессивная
Бит/(Пиксели*Кадры) : 0.268
Размер потока : 2,46 Гбайт (68%)
Заголовок : The.Apparition.2012.720p.BluRay.x264.DTS-HDChina
Библиотека кодирования : x264 core 125 r2200 999b753
Настройки программы : cabac=1 / ref=12 / deblock=1:-3:-3 / analyse=0x3:0x133 / me=umh / subme=10 / psy=1 / psy_rd=1.00:0.05 / mixed_ref=1 / me_range=48 / chroma_me=1 / trellis=2 / 8x8dct=1 / cqm=0 / deadzone=21,11 / fast_pskip=0 / chroma_qp_offset=-3 / threads=12 / lookahead_threads=2 / sliced_threads=0 / nr=0 / decimate=0 / interlaced=0 / bluray_compat=0 / constrained_intra=0 / bframes=8 / b_pyramid=2 / b_adapt=2 / b_bias=0 / direct=3 / weightb=1 / open_gop=0 / weightp=2 / keyint=360 / keyint_min=2 / scenecut=40 / intra_refresh=0 / rc_lookahead=0 / rc=2pass / mbtree=0 / bitrate=4400 / ratetol=1.0 / qcomp=0.70 / qpmin=0 / qpmax=69 / qpstep=4 / cplxblur=20.0 / qblur=0.5 / vbv_maxrate=50000 / vbv_bufsize=30000 / nal_hrd=none / ip_ratio=1.40 / pb_ratio=1.30 / aq=1:1.00
Язык : English

Аудио #1
Идентификатор : 2
Формат : AC-3
Формат/Информация : Audio Coding 3
Расширение режима : CM (complete main)
Идентификатор кодека : A_AC3
Продолжительность : 1 ч. 22 м.
Вид битрейта : Постоянный
Битрейт : 384 Кбит/сек
Каналы : 6 каналов
Расположение каналов : Front: L C R, Side: L R, LFE
Частота : 48,0 КГц
Битовая глубина : 16 бит
Метод сжатия : С потерями
Размер потока : 226 Мбайт (6%)
Заголовок : DD 5.1 @ 384 kbps - Dub, R5
Язык : Russian

Аудио #2
Идентификатор : 3
Формат : DTS
Формат/Информация : Digital Theater Systems
Идентификатор кодека : A_DTS
Продолжительность : 1 ч. 22 м.
Вид битрейта : Постоянный
Битрейт : 1510 Кбит/сек
Каналы : 6 каналов
Расположение каналов : Front: L C R, Side: L R, LFE
Частота : 48,0 КГц
Битовая глубина : 24 бит
Метод сжатия : С потерями
Размер потока : 890 Мбайт (24%)
Заголовок : DTS 5.1 @ 1536 kbps
Язык : English

Текст #1
Идентификатор : 4
Формат : UTF-8
Идентификатор кодека : S_TEXT/UTF8
Идентификатор кодека/Информация : UTF-8 Plain Text
Язык : Russian

Текст #2
Идентификатор : 5
Формат : UTF-8
Идентификатор кодека : S_TEXT/UTF8
Идентификатор кодека/Информация : UTF-8 Plain Text
Язык : English

Свернуть
"Знаете ли Вы, что..."
  • Прежде чем фильм появился на экранах в августе 2012-го, его выпуск был задержан на 2 года после того, как Warner Bros. разорвала свои отношения с производящей компанией Dark Castle Entertainment. Warner Bros. обеспечили фильму минимальное количество копий в прокате по сравнению с любыми другими фильмами за всю их историю в качестве компании-дистрибьютора.
Свернуть
Скриншоты

Изображение

Изображение

Изображение
Свернуть
Не в сети
Профиль  
Начать новую темуОтветить на тему  [ 1 сообщение ] 
Вы не можете начинать темы
Вы не можете отвечать на сообщения
Вы не можете редактировать свои сообщения
Вы не можете удалять свои сообщения