Правила форума

  • В этом разделе создание новых тем Запрещено.
  • Для создания новых тем пользуйтесь Корневым разделом DVD и HD фильмы.
Начать новую темуОтветить на тему  [ Сообщений: 6 ] 
Торрент файл
Размер: 4.37 GB • Зарегистрирован: 4 года • Статус: # Сомнительно
Скачан: 109 раз • Желающих скачать: 0 • Поблагодарили: 18 раз
 Раздают: 0  |  0 KB/s  ]   Качают: 0  |  0 KB/s  ] 
 Полного источника не было 3 года 2 месяца 
Сообщения
 Добавлено: 2012-12-03 17:08
Аватара пользователя
Стаж: 7 лет 4 месяца
Возраст: 21
Сообщений: 419
Спасибок: 12709
Лайков: 18
Изображение
Явление / The Apparition

«Поверишь - умрешь»

Год выпуска: 2012
Страна: США
Жанр: Ужасы, триллер
Продолжительность: 01:22:24
Перевод: Профессиональный (полное дублирование) [Лицензия]

Режиссер: Тодд Линкольн
Сценарий: Тодд Линкольн
Продюсер: Алекс Хейнеман, Тодд Линкольн, Эндрю Рона
Оператор: Дэниэл Перл
Композитор: Томэндэнди

В ролях: Эшли Грин, Себастиан Стэн, Том Фелтон, Джулианна Гуилл, Люк Паскуалино, Рик Гомез, Анна Кларк, Тим Уильямс, Марти Матулис, Сюзанн Форд, Мина Серендиб

Описание: Когда в их доме начинают происходить странные пугающие события, молодые люди Келли и Бен выясняют, что их преследует потусторонняя сущность, случайно вызванная во время парапсихологического эксперимента в университете. Страшное нечто питается их страхами и истязает их, куда бы они ни бежали. Последняя надежда молодых людей — на эксперта по паранормальным явлениям, но может статься, что спасать их жизни от пугающей потусторонней силы уже слишком поздно — даже с его помощью…

Раздача: Изображение


Изображение

Бюджет: $17 000 000
Сборы в мире: $9 627 492
Сборы в США: $4 936 819
Сборы в России: $2 640 498
Мировая премьера: 23 августа 2012
Премьера РФ: 30 августа 2012, «Каро-Премьер»
Релиз на DVD: 10 января 2013, «CP Дистрибуция»
Релиз на Blu-Ray: 10 января 2013, «CP Дистрибуция»

Качество: BDRip [1080p]
Формат: Matroska
Видео: 1920x800, 7203 Кбит/сек, 23,976 кадр/сек, AVC, x264, 2,40:1, 0.196 Бит/[Пиксели*Кадры], 2pass
Аудио: AC-3, 384 Кбит/сек, 6 канала(ов), 48,0 КГц

Изображение

Знаете ли Вы, что...
  • Прежде чем фильм появился на экранах в августе 2012-го, его выпуск был задержан на 2 года после того, как Warner Bros. разорвала свои отношения с производящей компанией Dark Castle Entertainment. Warner Bros. обеспечили фильму минимальное количество копий в прокате по сравнению с любыми другими фильмами за всю их историю в качестве компании-дистрибьютора.
Свернуть


MediaInfo
Общее
Уникальный идентификатор : 250343825594910663507432336841471637126 (0xBC56778E013287CFABFDE34404A73686)
Полное имя : A:РаздачиThe.Apparition.2012.x264.BDRip.1080p.DUB.mkv
Формат : Matroska
Версия формата : Version 2
Размер файла : 4,37 Гбайт
Продолжительность : 1 ч. 22 м.
Общий поток : 7587 Кбит/сек
Дата кодирования : UTC 2012-12-03 07:54:27
Программа кодирования : mkvmerge v5.5.0 ('Healer') built on Apr 6 2012 21:43:24
Библиотека кодирования : libebml v1.2.3 + libmatroska v1.3.0

Видео
Идентификатор : 1
Формат : AVC
Формат/Информация : Advanced Video Codec
Профиль формата : High@L4.0
Параметр CABAC формата : Да
Параметр ReFrames формата : 4 кадра
Идентификатор кодека : V_MPEG4/ISO/AVC
Продолжительность : 1 ч. 22 м.
Битрейт : 7203 Кбит/сек
Ширина : 1920 пикселей
Высота : 800 пикселей
Соотношение сторон : 2,40:1
Частота кадров : 23,976 кадра/сек
Цветовое пространство : YUV
Субдискретизация насыщенности : 4:2:0
Битовая глубина : 8 бит
Тип развёртки : Прогрессивная
Бит/(Пиксели*Кадры) : 0.196
Размер потока : 4,06 Гбайт (93%)
Заголовок : Явление
Библиотека кодирования : x264 core 129 r2230 1cffe9f
Настройки программы : cabac=1 / ref=3 / deblock=1:0:0 / analyse=0x3:0x113 / me=hex / subme=7 / psy=1 / psy_rd=1.00:0.00 / mixed_ref=1 / me_range=16 / chroma_me=1 / trellis=1 / 8x8dct=1 / cqm=0 / deadzone=21,11 / fast_pskip=1 / chroma_qp_offset=-2 / threads=12 / lookahead_threads=2 / sliced_threads=0 / nr=0 / decimate=1 / interlaced=0 / bluray_compat=0 / constrained_intra=0 / bframes=3 / b_pyramid=2 / b_adapt=1 / b_bias=0 / direct=1 / weightb=1 / open_gop=0 / weightp=2 / keyint=240 / keyint_min=23 / scenecut=40 / intra_refresh=0 / rc_lookahead=40 / rc=2pass / mbtree=1 / bitrate=7203 / ratetol=1.0 / qcomp=0.60 / qpmin=10 / qpmax=51 / qpstep=4 / cplxblur=20.0 / qblur=0.5 / ip_ratio=1.40 / aq=1:1.00
Язык : English
Default : Да
Forced : Нет

Аудио
Идентификатор : 2
Формат : AC-3
Формат/Информация : Audio Coding 3
Расширение режима : CM (complete main)
Идентификатор кодека : A_AC3
Продолжительность : 1 ч. 22 м.
Вид битрейта : Постоянный
Битрейт : 384 Кбит/сек
Каналы : 6 каналов
Расположение каналов : Front: L C R, Side: L R, LFE
Частота : 48,0 КГц
Битовая глубина : 16 бит
Метод сжатия : С потерями
Размер потока : 226 Мбайт (5%)
Заголовок : Дубляж
Язык : Russian
Default : Да
Forced : Нет
Свернуть


Скриншоты:


Изображение


Изображение


Изображение


Изображение


Свернуть
Не в сети
Профиль  
 Добавлено: 2012-12-04 14:53 (спустя 21 час)
Аватара пользователя
Стаж: 8 лет 1 месяц
Возраст: 21
Сообщений: 42
Спасибок: 30
ну и как?)
_________________
Изображение
Не в сети
Профиль  
 Добавлено: 2012-12-07 18:38 (спустя 3 дня)
Хавбек
Аватара пользователя
Стаж: 7 лет 6 месяцев
Возраст: 25
Сообщений: 216
Картинка и звук-норм.
спасибо за раздачу)
Не в сети
Профиль  
 Добавлено: 2013-01-11 21:33 (спустя 1 месяц 4 дня)
Аватара пользователя
Стаж: 8 лет 7 месяцев
Сообщений: 42
Как фильм?
Не в сети
Профиль  
 Добавлено: 2013-01-12 23:42 (спустя 1 день 2 часа)
Аватара пользователя
Стаж: 6 лет 9 месяцев
Сообщений: 922
весьма сырой фильм... да и складывается впечатление будто на написание сюжета было потрачено 5 минут...
Не в сети
Профиль  
 Добавлено: 2013-01-13 10:09 (спустя 10 часов)
Стаж: 7 лет 8 месяцев
Сообщений: 1
Спасибок: 8
Фильм полный отстой, не тратьте свое время
Не в сети
Профиль  
Начать новую темуОтветить на тему  [ Сообщений: 6 ] 
Вы не можете начинать темы
Вы не можете отвечать на сообщения
Вы не можете редактировать свои сообщения
Вы не можете удалять свои сообщения