Правила форума

  • В этом разделе создание новых тем Запрещено.
  • Для создания новых тем пользуйтесь Корневым разделом DVD и HD фильмы.
Начать новую темуОтветить на тему  [ 1 сообщение ] 
Торрент файл
Размер: 7.41 GB • Зарегистрирован: 3 года 10 месяцев • Статус: Проверено
Скачан: 132 раза • Желающих скачать: 0 • Поблагодарили: 10 раз
 Раздают: 0  |  0 KB/s  ]   Качают: 0  |  0 KB/s  ] 
 Полного источника не было 2 года 10 месяцев 
Сообщения
 Добавлено: 2013-01-11 15:07
Аватара пользователя
Стаж: 9 лет 1 месяц
Сообщений: 7977
Спасибок: 122205
Лайков: 1191
Явление / The Apparition

«Поверишь - умрешь»

Изображение


Год выпуска: 2012
Страна: Изображение США
Жанр: ужасы, триллер
Продолжительность: 01:22:24
Субтитры: Русские, английские
Перевод: Профессиональный (полное дублирование) + Любительский двухголосый + Любительский одноголосый


Режиссёр: Тодд Линкольн
Сценарист: Тодд Линкольн
Продюсер: Алекс Хейнеман, Тодд Линкольн, Эндрю Рона
Оператор: Дэниэл Перл
Композитор: Томэндэнди

В ролях: Эшли Грин, Себастьян Стэн, Том Фелтон, Джулианна Гуилл, Люк Паскуалино, Рик Гомез, Сюзанн Форд, Анна Кларк, Мина Серендиб, Марти Матулис

Описание: Когда в их доме начинают происходить странные пугающие события, молодые люди Келли и Бен выясняют, что их преследует потусторонняя сущность, случайно вызванная во время парапсихологического эксперимента в университете. Страшное нечто питается их страхами и истязает их, куда бы они ни бежали. Последняя надежда молодых людей — на эксперта по паранормальным явлениям, но может статься, что спасать их жизни от пугающей потусторонней силы уже слишком поздно — даже с его помощью…

Изображение Изображение

Качество: BDRip (1080p)
Формат: Matroska
Видео: MPEG-4 AVC, 9887 Кбит/с, 1920x800, 23.976 кадр/с
Аудио №1: Русский (AC3, 6 ch, 640 Кбит/c) Дубляж
Аудио №2: Русский (AC3, 6 ch, 448 Кбит/с) Любительский двухголосый
Аудио №3: Русский (AC3, 6 ch, 384 Кбит/с) Любительский одноголосый
Аудио №4: Английский (DTS, 6 ch, 1510 Кбит/c)

MediaInfo
Общее
Уникальный идентификатор : 195641920293199031252274373256649838572 (0x932F4365777AFD8A9AC8DA525D4B0FEC)
Полное имя : H:\Javlenie.2012.x264.BDRip(1080p).nntt.org.mkv
Формат : Matroska
Версия формата : Version 2
Размер файла : 7,41 Гбайт
Продолжительность : 1 ч. 22 м.
Общий поток : 12,9 Мбит/сек
Название фильма : --SCHUMAHER--
Дата кодирования : UTC 2013-01-10 20:10:02
Программа кодирования : mkvmerge v5.8.0 ('No Sleep / Pillow') built on Sep 2 2012 15:37:04
Библиотека кодирования : libebml v1.2.3 + libmatroska v1.3.0

Видео
Идентификатор : 1
Формат : AVC
Формат/Информация : Advanced Video Codec
Профиль формата : High@L4.1
Параметр CABAC формата : Да
Параметр ReFrames формата : 4 кадра
Идентификатор кодека : V_MPEG4/ISO/AVC
Продолжительность : 1 ч. 22 м.
Битрейт : 9887 Кбит/сек
Ширина : 1920 пикселей
Высота : 800 пикселей
Соотношение сторон : 2,40:1
Режим частоты кадров : Постоянный
Частота кадров : 23,976 кадра/сек
Цветовое пространство : YUV
Субдискретизация насыщенности : 4:2:0
Битовая глубина : 8 бит
Тип развёртки : Прогрессивная
Бит/(Пиксели*Кадры) : 0.268
Размер потока : 5,55 Гбайт (75%)
Библиотека кодирования : x264 core 129 r2230 1cffe9f
Настройки программы : cabac=1 / ref=4 / deblock=1:-2:-2 / analyse=0x3:0x113 / me=umh / subme=10 / psy=1 / psy_rd=1.20:0.20 / mixed_ref=1 / me_range=32 / chroma_me=1 / trellis=2 / 8x8dct=1 / cqm=0 / deadzone=21,11 / fast_pskip=0 / chroma_qp_offset=-3 / threads=9 / lookahead_threads=1 / sliced_threads=0 / nr=0 / decimate=0 / interlaced=0 / bluray_compat=0 / constrained_intra=0 / bframes=5 / b_pyramid=2 / b_adapt=2 / b_bias=0 / direct=3 / weightb=1 / open_gop=0 / weightp=2 / keyint=240 / keyint_min=1 / scenecut=40 / intra_refresh=0 / rc_lookahead=60 / rc=2pass / mbtree=0 / bitrate=9887 / ratetol=1.0 / qcomp=0.60 / qpmin=10 / qpmax=51 / qpstep=4 / cplxblur=20.0 / qblur=0.5 / vbv_maxrate=38000 / vbv_bufsize=38000 / nal_hrd=none / ip_ratio=1.40 / pb_ratio=1.30 / aq=1:1.00
Язык : English
Default : Да
Forced : Да

Аудио #1
Идентификатор : 2
Формат : AC-3
Формат/Информация : Audio Coding 3
Расширение режима : CM (complete main)
Параметр Endianness формата : Big
Идентификатор кодека : A_AC3
Продолжительность : 1 ч. 22 м.
Вид битрейта : Постоянный
Битрейт : 640 Кбит/сек
Каналы : 6 каналов
Расположение каналов : Front: L C R, Side: L R, LFE
Частота : 48,0 КГц
Битовая глубина : 16 бит
Метод сжатия : С потерями
Размер потока : 377 Мбайт (5%)
Язык : Russian
Default : Да
Forced : Да

Аудио #2
Идентификатор : 3
Формат : AC-3
Формат/Информация : Audio Coding 3
Расширение режима : CM (complete main)
Параметр Endianness формата : Big
Идентификатор кодека : A_AC3
Продолжительность : 1 ч. 22 м.
Вид битрейта : Постоянный
Битрейт : 448 Кбит/сек
Каналы : 6 каналов
Расположение каналов : Front: L C R, Side: L R, LFE
Частота : 48,0 КГц
Битовая глубина : 16 бит
Метод сжатия : С потерями
Размер потока : 264 Мбайт (3%)
Заголовок : двухголосый
Язык : Russian
Default : Нет
Forced : Нет

Аудио #3
Идентификатор : 4
Формат : AC-3
Формат/Информация : Audio Coding 3
Расширение режима : CM (complete main)
Параметр Endianness формата : Big
Идентификатор кодека : A_AC3
Продолжительность : 1 ч. 22 м.
Вид битрейта : Постоянный
Битрейт : 384 Кбит/сек
Каналы : 6 каналов
Расположение каналов : Front: L C R, Side: L R, LFE
Частота : 48,0 КГц
Битовая глубина : 16 бит
Метод сжатия : С потерями
Размер потока : 226 Мбайт (3%)
Заголовок : одноголосый
Язык : Russian
Default : Нет
Forced : Нет

Аудио #4
Идентификатор : 5
Формат : DTS
Формат/Информация : Digital Theater Systems
Режим : 16
Параметр Endianness формата : Big
Идентификатор кодека : A_DTS
Продолжительность : 1 ч. 22 м.
Вид битрейта : Постоянный
Битрейт : 1509 Кбит/сек
Каналы : 6 каналов
Расположение каналов : Front: L C R, Side: L R, LFE
Частота : 48,0 КГц
Битовая глубина : 24 бит
Метод сжатия : С потерями
Размер потока : 890 Мбайт (12%)
Язык : English
Default : Нет
Forced : Нет

Текст #1
Идентификатор : 6
Формат : UTF-8
Идентификатор кодека : S_TEXT/UTF8
Идентификатор кодека/Информация : UTF-8 Plain Text
Заголовок : Forced
Язык : Russian
Default : Да
Forced : Да

Текст #2
Идентификатор : 7
Формат : UTF-8
Идентификатор кодека : S_TEXT/UTF8
Идентификатор кодека/Информация : UTF-8 Plain Text
Заголовок : Full
Язык : Russian
Default : Нет
Forced : Нет

Текст #3
Идентификатор : 8
Формат : UTF-8
Идентификатор кодека : S_TEXT/UTF8
Идентификатор кодека/Информация : UTF-8 Plain Text
Язык : English
Default : Нет
Forced : Нет

Меню
00:00:00.000 : en:
00:09:27.316 : en:
00:18:28.023 : en:
00:31:04.028 : en:
00:40:29.969 : en:
00:49:46.274 : en:
01:00:39.260 : en:
01:13:37.413 : en:
Свернуть
Знаете ли вы, что...
Прежде чем фильм появился на экранах в августе 2012-го, его выпуск был задержан на 2 года после того, как Warner Bros. разорвала свои отношения с производящей компанией Dark Castle Entertainment. Warner Bros. обеспечили фильму минимальное количество копий в прокате по сравнению с любыми другими фильмами за всю их историю в качестве компании-дистрибьютора.
Свернуть
Скриншоты
Изображение
Изображение
Изображение
Изображение
Изображение
Свернуть
Не в сети
Профиль  
Начать новую темуОтветить на тему  [ 1 сообщение ] 
Вы не можете начинать темы
Вы не можете отвечать на сообщения
Вы не можете редактировать свои сообщения
Вы не можете удалять свои сообщения