Правила форума

  • В этом разделе создание новых тем Запрещено.
  • Для создания новых тем пользуйтесь Корневым разделом DVD и HD фильмы.
Начать новую темуОтветить на тему  [ Сообщений: 5 ] 
Торрент файл
Размер: 4.66 GB • Зарегистрирован: 4 года • Статус: Проверено
Скачан: 44 раза • Желающих скачать: 0 • Поблагодарили: 13 раз
 Раздают: 0  |  0 KB/s  ]   Качают: 0  |  0 KB/s  ] 
 Полного источника не было 2 года 10 месяцев 
Сообщения
 Добавлено: 2012-12-05 06:29
Аватара пользователя
Стаж: 7 лет 2 месяца
Сообщений: 7167
Спасибок: 82010
Лайков: 2438
За гранью

Beyond

Изображение


Год выпуска: 2012
Страна: Изображение США
Слоган: «На что ты готов пойти, чтобы узнать правду?»
Жанр: Триллер
Продолжительность: 01:30:02

Режиссёр: Йозеф Руснак
В ролях: Джон Войт, Тери Поло, Бен Краули, Хлое М. Лессли, Дермот Малруни, Джулиан Моррис, Бретт Бэйкер, Бриан Аруа, Кевин Т. Беннетт, Сандра Люссе
Описание: Этот фильм о семилетней девочке, похищенной из своей спальни зимней ночью. Во время расследования детектив полиции сталкивается с загадочным медиумом, которая утверждает, что видела пропавшую девочку. Тянуть с расследованием никак нельзя, каждый день может стать последним для ребенка, и детектив соглашается прибегнуть к помощи потусторонних сил.


Качество: BDRip 720p
Формат: MKV
Видео кодек: H264 (AVC)
Аудио кодек: AC3 (Dolby Digital), DTS
Видео: 1 280x536, 23.976 fps, 5 443 Kbps
Аудио #1: 48.0 KHz, 6 ch, 448 Kbps [Профессиональный (многоголосый закадровый)] Лицензия
Аудио #2: 48.0 KHz, 6 ch, 1 510 Kbps [Оригинальная звуковая дорожка]
Субтитры: Русские
Изображение
Изображение

Скриншоты
Изображение

Изображение

Изображение

Изображение

Изображение

Изображение
Свернуть
MI
General
Unique ID : 218325930842373221672525547665243076449 (0xA4400B7700243D2ABD026D16E6F97761)
Complete name : За гранью.2012.mkv
Format : Matroska
Format version : Version 2
File size : 4.66 GiB
Duration : 1h 30mn
Overall bit rate : 7 402 Kbps
Encoded date : UTC 2012-12-04 16:48:52
Writing application : mkvmerge v5.2.0 ('I can't explain') built on Dec 18 2011 18:12:03
Writing library : libebml v1.2.3 + libmatroska v1.3.0

Video
ID : 1
Format : AVC
Format/Info : Advanced Video Codec
Format profile : High@L4.1
Format settings, CABAC : Yes
Format settings, ReFrames : 5 frames
Codec ID : V_MPEG4/ISO/AVC
Duration : 1h 30mn
Bit rate : 5 443 Kbps
Width : 1 280 pixels
Height : 536 pixels
Display aspect ratio : 2.40:1
Frame rate : 23.976 fps
Color space : YUV
Chroma subsampling : 4:2:0
Bit depth : 8 bits
Scan type : Progressive
Bits/(Pixel*Frame) : 0.331
Stream size : 3.33 GiB (72%)
Title : Beyond (2012)
Writing library : x264 core 122 r2184 5c85e0a
Encoding settings : cabac=1 / ref=5 / deblock=1:0:0 / analyse=0x3:0x113 / me=umh / subme=7 / psy=1 / psy_rd=1.00:0.00 / mixed_ref=1 / me_range=16 / chroma_me=1 / trellis=1 / 8x8dct=1 / cqm=0 / deadzone=21,11 / fast_pskip=0 / chroma_qp_offset=-2 / threads=12 / sliced_threads=0 / nr=0 / decimate=1 / interlaced=0 / bluray_compat=0 / constrained_intra=0 / bframes=3 / b_pyramid=2 / b_adapt=1 / b_bias=0 / direct=1 / weightb=1 / open_gop=0 / weightp=2 / keyint=250 / keyint_min=23 / scenecut=40 / intra_refresh=0 / rc_lookahead=40 / rc=2pass / mbtree=1 / bitrate=5443 / ratetol=1.0 / qcomp=0.60 / qpmin=0 / qpmax=69 / qpstep=4 / cplxblur=20.0 / qblur=0.5 / ip_ratio=1.40 / aq=1:1.00
Language : English
Default : Yes
Forced : Yes

Audio #1
ID : 2
Format : AC-3
Format/Info : Audio Coding 3
Mode extension : CM (complete main)
Format settings, Endianness : Big
Codec ID : A_AC3
Duration : 1h 30mn
Bit rate mode : Constant
Bit rate : 448 Kbps
Channel(s) : 6 channels
Channel positions : Front: L C R, Side: L R, LFE
Sampling rate : 48.0 KHz
Bit depth : 16 bits
Compression mode : Lossy
Stream size : 289 MiB (6%)
Title : DD 5.1 @ 448 kbps - MVO, R5
Language : Russian
Default : Yes
Forced : Yes

Audio #2
ID : 3
Format : DTS
Format/Info : Digital Theater Systems
Codec ID : A_DTS
Duration : 1h 30mn
Bit rate mode : Constant
Bit rate : 1 510 Kbps
Channel(s) : 6 channels
Channel positions : Front: L C R, Side: L R, LFE
Sampling rate : 48.0 KHz
Bit depth : 24 bits
Compression mode : Lossy
Stream size : 972 MiB (20%)
Title : DTS 5.1 @ 1536 kbps
Language : English
Default : No
Forced : No

Text
ID : 4
Format : UTF-8
Codec ID : S_TEXT/UTF8
Codec ID/Info : UTF-8 Plain Text
Title : R5
Language : Russian
Default : No
Forced : No


Свернуть

Изображение
 rotametr нравится это.
Не в сети
Профиль  
 Добавлено: 2012-12-05 07:13 (спустя 43 минуты)
Модератор
Аватара пользователя
Стаж: 6 лет 10 месяцев
Возраст: 33
Сообщений: 5908
Спасибок: 61259
Лайков: 3540
Этот релиз должен быть в HD разделе.
_________________
ИзображениеИзображение Изображение
Изображение
Не в сети
Профиль  
 Добавлено: 2012-12-05 07:40 (спустя 26 минут)
Аватара пользователя
Стаж: 7 лет 2 месяца
Сообщений: 7167
Спасибок: 82010
Лайков: 2438
Сань да я в курсе, так получилось :)
Не в сети
Профиль  
 Добавлено: 2012-12-05 08:23 (спустя 43 минуты)
Модератор
Аватара пользователя
Стаж: 6 лет 10 месяцев
Возраст: 33
Сообщений: 5908
Спасибок: 61259
Лайков: 3540

di-ys1:

Сань да я в курсе, так получилось :)
знаю, знаю, здесь больше народу подхватит :-D
_________________
ИзображениеИзображение Изображение
Изображение
Не в сети
Профиль  
 Добавлено: 2012-12-05 08:52 (спустя 28 минут)
Аватара пользователя
Стаж: 7 лет 2 месяца
Сообщений: 7167
Спасибок: 82010
Лайков: 2438
:-D
Не в сети
Профиль  
Начать новую темуОтветить на тему  [ Сообщений: 5 ] 
Вы не можете начинать темы
Вы не можете отвечать на сообщения
Вы не можете редактировать свои сообщения
Вы не можете удалять свои сообщения