Правила форума

  • В этом разделе создание новых тем Запрещено.
  • Для создания новых тем пользуйтесь Корневым разделом DVD и HD фильмы.
Начать новую темуОтветить на тему  [ Сообщений: 2 ] 
Торрент файл
Размер: 4.69 GB • Зарегистрирован: 5 лет 6 месяцев • Статус: Проверено
Скачан: 18 раз • Желающих скачать: 0 • Поблагодарили: 8 раз
 Раздают: 0  |  0 KB/s  ]   Качают: 0  |  0 KB/s  ] 
 Полного источника не было 1 год 9 месяцев 
Сообщения
 Добавлено: 2011-05-26 09:02
Аватара пользователя
Стаж: 8 лет 9 месяцев
Возраст: 44
Сообщений: 2454
Спасибок: 6160
Изображение

Забавная ферма / Funny Farm


«Chevy Chase finds life in the country isn't what it's cracked up to be!»

Год выпуска: 1988
Страна: США
Жанр: комедия
Продолжительность: 1:41
Перевод: Профессиональный многоголосый (СТС); Любительский одноголосый (А. Михалёв)
Режиссер: Джордж Рой Хилл
Сценарий: Джей Кронли, Джефри Боум
Продюсер: Брюс Боднер, Роберт Кроуфорд, Патрик Келли
Оператор: Мирослав Ондржичек
Композитор: Элмер Бернстайн
В ролях: Чеви Чейз /Chevy Chase/, Мэдолин Смит /Madolyn Smith/, Кевин О'Моррисон /Kevin O'Morrison/, Джозеф Махер /Joseph Maher/, Джек Гилпин , /Jack Gilpin/, Брэд Салливан /Brad Sullivan/
Описание: Преуспевающий нью-йоркский спортивный журналист и его жена-учительница решают оставить суету Манхэттена, чтобы жить в тиши сельской местности Вермонта. Их мечта осуществляется с самыми уморительными последствиями, на которые способен комический актер Чейз.
Изображение
Бюджет: $19 000 000
Изображение
MPAA: Изображение
Раздача группы: Изображение

Качество: HDTVRip 720p
Формат: MKV
Видео: 1280x720, 23.976 fps, MPEG-4 AVC, ~5 796 Kbps VBR
Аудио#1: Русский: DD 2.0 (MP3), 48 kHz, 192 kbps (многоголосый, СТС)
Аудио#2: Русский: DD 2.0 (AC3), 48 kHz, 256 kbps (одноголосый, А. Михалёв)
Аудио#3: Английский: DD 5.1 (AC3), 48 kHz, 384 kbps avg (оригинал)

iNFO
Video
Идентификатор : 1
Формат : AVC
Формат/Информация : Advanced Video Codec
Профайл формата : High@L4.1
Параметры CABAC формата : Yes
Параметры ReFrames формата : 9 frames
Режим смешивания : Container profile=Unknown@4.1
Идентификатор кодека : V_MPEG4/ISO/AVC
Продолжительность : 1h 41mn
Битрейт : 5 668 Kbps
Номинальный битрейт : 5 796 Kbps
Ширина : 1 280 pixels
Высота : 720 pixels
Соотношение кадра : 16/9
Частота кадров : 23.976 fps
Разрешение : 24 bits
Колориметрия : 4:2:0
Тип развёртки : Progressive
Бит/(Пиксели*Кадры) : 0.257
Размер потока : 4.01 GiB (88%)
Заголовок : Funny Farm (1988) 720p HDTV DD5.1 x264-yfed
Библиотека кодирования : x264 core 67 r1163M 3f56e27
Настройки программы : cabac=1 / ref=9 / deblock=1:-3:-3 / analyse=0x3:0x113 / me=umh / subme=9 / psy_rd=1.1:0.0 / mixed_ref=1 / me_range=24 / chroma_me=1 / trellis=2 / 8x8dct=1 / cqm=0 / deadzone=21,11 / chroma_qp_offset=-2 / threads=6 / nr=0 / decimate=0 / mbaff=0 / bframes=6 / b_pyramid=1 / b_adapt=2 / b_bias=0 / direct=3 / wpredb=1 / keyint=250 / keyint_min=25 / scenecut=40 / rc=2pass / bitrate=5796 / ratetol=1.0 / qcomp=0.60 / qpmin=10 / qpmax=51 / qpstep=4 / cplxblur=20.0 / qblur=0.5 / vbv_maxrate=50000 / vbv_bufsize=50000 / ip_ratio=1.40 / pb_ratio=1.30 / aq=1:0.90
Язык : English
Audio #1
Идентификатор : 2
Формат : AC-3
Формат/Информация : Audio Coding 3
Идентификатор кодека : A_AC3
Продолжительность : 1h 41mn
Вид битрейта : Constant
Битрейт : 256 Kbps
Канал(ы) : 2 channels
Расположение каналов : L R
Частота : 48.0 KHz
Задержка видео : 5s 400ms
Размер потока : 186 MiB (4%)
Язык : Russian
Audio #2
Идентификатор : 3
Формат : AC-3
Формат/Информация : Audio Coding 3
Идентификатор кодека : A_AC3
Продолжительность : 1h 41mn
Вид битрейта : Constant
Битрейт : 384 Kbps
Канал(ы) : 6 channels
Расположение каналов : Front: L C R, Surround: L R, LFE
Частота : 48.0 KHz
Задержка видео : 32ms
Размер потока : 278 MiB (6%)
Заголовок : AC3 5.1 384Kbps
Язык : English
Свернуть
Скриншоты
Изображение

Изображение

Изображение

Изображение
Свернуть
_________________
Правила раздела "Игры для PC" [30.11.2011]

Исправили недочеты в релизе, пишите в ЛС любому модератору Игр с ссылкой на релиз
Не в сети
Профиль  
 Добавлено: 2011-06-07 21:48 (спустя 12 дней)
Аватара пользователя
Стаж: 7 лет 9 месяцев
Сообщений: 67
Спасибок: 82
Супер,спасибо=)))
Не в сети
Профиль  
Начать новую темуОтветить на тему  [ Сообщений: 2 ] 
Вы не можете начинать темы
Вы не можете отвечать на сообщения
Вы не можете редактировать свои сообщения
Вы не можете удалять свои сообщения