Правила форума

  • В этом разделе создание новых тем Запрещено.
  • Для создания новых тем пользуйтесь Корневым разделом DVD и HD фильмы.
Начать новую темуОтветить на тему  [ Сообщений: 4 ] 
Торрент файл
Размер: 9.15 GB • Зарегистрирован: 2 года 8 месяцев • Статус: Проверено
Скачан: 199 раз • Желающих скачать: 0 • Поблагодарили: 94 раза
 Раздают: 2  |  0 KB/s  ]   Качают: 0  |  0 KB/s  ] 
Сообщения
 Добавлено: 2014-03-25 01:26
Аватара пользователя
Стаж: 9 лет 1 месяц
Сообщений: 8018
Спасибок: 122267
Лайков: 1194
Забойный реванш / Grudge Match

«Когда возраст не имеет значения»

Изображение


Год выпуска: 2013
Страна: Изображение США
Жанр: комедия, спорт
Продолжительность: 01:53:17
Субтитры: Румынские
Перевод: Профессиональный (полное дублирование) [Лицензия] + Авторский (одноголосый, закадровый) [Д. Пучков aka Гоблин]


Режиссер: Питер Сигал
Сценарий: Тим Келлехер, Родни Ротман
Продюсер: Майкл Юинг, Билл Гербер, Марк Стивен Джонсон
Оператор: Дин Семлер
Композитор: Тревор Рэбин

В ролях: Роберт Де Ниро, Сильвестр Сталлоне, Кевин Харт, Алан Аркин, Джон Бернтал, Ким Бейсингер, Курт Краузе, Старлетт Миариаунии, Пол Бен-Виктор, Стеффи Гроут


Описание: Фильм расскажет о двух бывших боксерах, решающих вернуться на ринг ради финального матча, который должен будет уладить все их разногласия.

Изображение Изображение

Раздача группы: Изображение

Качество: BDRip (1080p)
Формат: Matroska
Видео: MPEG-4 AVC, 9500 Кбит/c, 1920x1080
Аудио №1: Русский (AC3, 48,0 КГц, 6 ch, 384 Кбит/c) Лицензия
Аудио №2: Русский (AC3, 48,0 КГц, 2 ch, 192 Кбит/c) Гоблин
Аудио №3: Английский (DTS, 48,0 КГц, 6 ch, 1510 Кбит/c)

MediaInfo
Общее
Уникальный идентификатор : 218978046581742665136675262048745397109 (0xA4BDA340CCCF536299537C985A859B75)
Полное имя : C:\Фильмы\Grudge.Match.2013.BluRay.1080p.x264.Rus.Eng.Subs-CHD.mkv
Формат : Matroska
Версия формата : Version 2
Размер файла : 9,15 Гбайт
Продолжительность : 1 ч. 53 м.
Общий поток : 11,6 Мбит/сек
Дата кодирования : UTC 2014-03-24 22:08:49
Программа кодирования : mkvmerge v5.7.0 ('The Whirlwind') built on Jul 29 2012 15:12:35
Библиотека кодирования : libebml v1.2.3 + libmatroska v1.3.0

Видео
Идентификатор : 1
Формат : AVC
Формат/Информация : Advanced Video Codec
Профиль формата : High@L4.1
Параметр CABAC формата : Да
Параметр ReFrames формата : 4 кадра
Идентификатор кодека : V_MPEG4/ISO/AVC
Продолжительность : 1 ч. 53 м.
Битрейт : 9500 Кбит/сек
Ширина : 1920 пикселей
Высота : 1080 пикселей
Соотношение сторон : 16:9
Режим частоты кадров : Постоянный
Частота кадров : 23,976 кадра/сек
Цветовое пространство : YUV
Субдискретизация насыщенности : 4:2:0
Битовая глубина : 8 бит
Тип развёртки : Прогрессивная
Бит/(Пиксели*Кадры) : 0.191
Размер потока : 7,32 Гбайт (80%)
Библиотека кодирования : x264 core 138 r2356 a1d3d17
Настройки программы : cabac=1 / ref=4 / deblock=1:-3:-3 / analyse=0x3:0x113 / me=umh / subme=10 / psy=1 / psy_rd=1.00:0.05 / mixed_ref=1 / me_range=32 / chroma_me=1 / trellis=2 / 8x8dct=1 / cqm=0 / deadzone=21,11 / fast_pskip=0 / chroma_qp_offset=-2 / threads=18 / lookahead_threads=1 / sliced_threads=0 / nr=0 / decimate=1 / interlaced=0 / bluray_compat=0 / constrained_intra=0 / bframes=5 / b_pyramid=2 / b_adapt=2 / b_bias=0 / direct=3 / weightb=1 / open_gop=0 / weightp=2 / keyint=250 / keyint_min=23 / scenecut=40 / intra_refresh=0 / rc=2pass / mbtree=0 / bitrate=9500 / ratetol=1.0 / qcomp=0.70 / qpmin=0 / qpmax=69 / qpstep=4 / cplxblur=20.0 / qblur=0.5 / ip_ratio=1.40 / pb_ratio=1.30 / aq=2:0.90
Язык : English
Default : Да
Forced : Нет

Аудио #1
Идентификатор : 2
Формат : AC-3
Формат/Информация : Audio Coding 3
Расширение режима : CM (complete main)
Параметр Endianness формата : Big
Идентификатор кодека : A_AC3
Продолжительность : 1 ч. 53 м.
Вид битрейта : Постоянный
Битрейт : 384 Кбит/сек
Каналы : 6 каналов
Расположение каналов : Front: L C R, Side: L R, LFE
Частота : 48,0 КГц
Битовая глубина : 16 бит
Метод сжатия : С потерями
Размер потока : 311 Мбайт (3%)
Язык : Russian
Default : Да
Forced : Нет

Аудио #2
Идентификатор : 3
Формат : AC-3
Формат/Информация : Audio Coding 3
Расширение режима : CM (complete main)
Параметр Endianness формата : Big
Идентификатор кодека : A_AC3
Продолжительность : 1 ч. 53 м.
Вид битрейта : Постоянный
Битрейт : 192 Кбит/сек
Каналы : 2 канала
Расположение каналов : Front: L R
Частота : 48,0 КГц
Битовая глубина : 16 бит
Метод сжатия : С потерями
Размер потока : 156 Мбайт (2%)
Заголовок : Гоблин
Язык : Russian
Default : Нет
Forced : Нет

Аудио #3
Идентификатор : 4
Формат : DTS
Формат/Информация : Digital Theater Systems
Режим : 16
Параметр Endianness формата : Big
Идентификатор кодека : A_DTS
Продолжительность : 1 ч. 53 м.
Вид битрейта : Постоянный
Битрейт : 1509 Кбит/сек
Каналы : 6 каналов
Расположение каналов : Front: L C R, Side: L R, LFE
Частота : 48,0 КГц
Битовая глубина : 24 бит
Метод сжатия : С потерями
Размер потока : 1,19 Гбайт (13%)
Язык : English
Default : Нет
Forced : Нет

Текст
Идентификатор : 5
Формат : UTF-8
Идентификатор кодека : S_TEXT/UTF8
Идентификатор кодека/Информация : UTF-8 Plain Text
Язык : Romanian
Default : Нет
Forced : Нет
Свернуть
Знаете ли вы, что...
В перерывах между дублями Садариас Харрелл писал песни для своего дебютного альбома. Когда при этом у него заканчивалась бумага, он начинал писать на денежных банкнотах.

Роль Салли (Ким Бейсингер) в молодости сыграла дочь актрисы — Айрленд Болдуин.

Было снято несколько альтернативных концовок для защиты от возможной утечки информации.

После финальных титров на стене можно заметить плакат, на котором написано «Сигал против Юинга». Это ссылка на режиссера Питера Сигала и продюсера Майкла Юинга. На том же плакате еще написано «Осбринк против Кинга» — это ссылка на агента голливудских звезд Синди Осбринк (Cindy Osbrink) и боксерского промоутера Дона Кинга.

Данте облокачивается на сложенный складной верх кузова своего Porsche, разговаривая по телефону. В следующих кадрах, когда он выходит из машины, кузов уже поднят.

Свернуть
Скриншоты
Изображение
Изображение
Изображение
Изображение
Свернуть
Не в сети
Профиль  
 Добавлено: 2014-03-25 12:27 (спустя 11 часов)
Аватара пользователя
Стаж: 8 лет 3 месяца
Сообщений: 80
Спасибок: 242
Семпл нужен
Не в сети
Профиль  
 Добавлено: 2014-03-25 20:22 (спустя 7 часов)
Аватара пользователя
Стаж: 6 лет 10 месяцев
Сообщений: 30
Лайков: 3
Супер,всем советую. :co_ol:
Не в сети
Профиль  
 Добавлено: 2014-03-27 21:12 (спустя 2 дня)
Аватара пользователя
Стаж: 8 лет 3 месяца
Возраст: 33
Сообщений: 319
Спасибок: 602
Лайков: 34
Заценим, мерси за релиз :co_ol:
Не в сети
Профиль  
Начать новую темуОтветить на тему  [ Сообщений: 4 ] 
Вы не можете начинать темы
Вы не можете отвечать на сообщения
Вы не можете редактировать свои сообщения
Вы не можете удалять свои сообщения