Правила форума

  • В этом разделе создание новых тем Запрещено.
  • Для создания новых тем пользуйтесь Корневым разделом DVD и HD фильмы.
Начать новую темуОтветить на тему  [ 1 сообщение ] 
Торрент файл
Размер: 6.89 GB • Зарегистрирован: 3 года 11 месяцев • Статус: Проверено
Скачан: 8 раз • Желающих скачать: 0 • Поблагодарили: 2 раза
 Раздают: 0  |  0 KB/s  ]   Качают: 0  |  0 KB/s  ] 
 Полного источника не было 3 года 2 месяца 
Сообщения
 Добавлено: 2012-12-17 16:52
Top-seeder
Аватара пользователя
Стаж: 9 лет
Сообщений: 1399
Спасибок: 28653
Лайков: 8
Заброшенный дом
The Abandoned
«Твоя смерть родилась вместе с тобой»

Изображение

Страна: Испания, Великобритания, Болгария
Жанр: ужасы, триллер, детектив
Год выпуска: 2006
Продолжительность: 01:39:33

Перевод: Профессиональный (дублированный)
Субтитры: русские, украинские
Оригинальная аудиодорожка: английская

Режиссёр: Начо Серда / Nacho Cerda

В ролях: Анастасия Хилл (Marie Jones), Карел Роден (Nicolai), Валентин Ганев (Andrei Misharin / Kolya Kaidavosky), Параскева Джукелова (Marie's Mother), Карлос Рейг-Пласа (Anatoliy), Калин Арсов (Bearded Russian Patriarch Man '1966'), Светлана Смолева (Bearded Patriarch's wife '1966'), Анна Панаетова (Bearded Patriarch's daughter '1966'), Йорданка Ангелова (Blind Woman 'present day'), Валентин Гошев (Patriarch - present day), Джасмина Маринова (Patriarch's Wife), Моника Баунова (Emily)

Описание: В поисках своих настоящих родителей американка Мэри приезжает в Россию и узнает, что получила в наследство дом от матери, умершей при таинственных обстоятельствах. В этом пустующем доме, затерянном в лесной глуши, она встречает человека по имени Николай, утверждающего, что он - ее брат-близнец, которого она никогда не знала.
Они понимают, что оказались здесь не случайно, и вскоре становятся свидетелями зловещих событий прошлого. Затаившийся в древнем доме ужас прорывается наружу, обволакивая их невидимыми путами и увлекая в лабиринты нескончаемого кошмара...


Качество: BDRip 720p
Контейнер: MKV

Видео: H.264/AVC, 1280x546 (2.35:1), 23.976 fps, ~7448 kbps
Аудио №1: Русский: DTS 5.1, 48 kHz, ~755 kbps | Дубляж |
Аудио №2: Английский: DTS 5.1, 48 kHz, ~1510 kbps
Формат субтитров: softsub (SRT)
Навигация по главам: есть

MI
Общее
Уникальный идентификатор : 218488870217178499897797305569637665819 (0xA45F6CFF0B38AD24A17136FF88F58C1B)
Полное имя : D:\Закачки\Заброшенный дом.mkv
Формат : Matroska
Размер файла : 6,89 Гбайт
Продолжительность : 1 ч. 39 м.
Общий поток : 9910 Кбит/сек
Название фильма : HDCLUB
Дата кодирования : UTC 2012-12-16 13:43:03
Программа кодирования : mkvmerge v5.7.0 ('The Whirlwind') built on Jul 8 2012 20:08:51
Библиотека кодирования : libebml v1.2.3 + libmatroska v1.3.0

Видео
Идентификатор : 1
Формат : AVC
Формат/Информация : Advanced Video Codec
Профиль формата : High@L4.1
Параметр CABAC формата : Да
Параметр ReFrames формата : 11 кадров
Идентификатор кодека : V_MPEG4/ISO/AVC
Продолжительность : 1 ч. 39 м.
Битрейт : 7449 Кбит/сек
Ширина : 1280 пикс.
Высота : 546 пикс.
Соотношение сторон : 2,35:1
Частота кадров : 23,976 кадр/сек
Цветовое пространство : YUV
Подвыборка цветности : 4:2:0
Битовая глубина : 8 бит
Тип развёртки : Прогрессивная
Бит/(Пиксели*Кадры) : 0.445
Размер потока : 5,18 Гбайт (75%)
Заголовок : HDCLUB
Библиотека кодирования : x264 core 125 r2200 999b753
Настройки программы : cabac=1 / ref=11 / deblock=1:-3:-3 / analyse=0x3:0x113 / me=umh / subme=10 / psy=1 / psy_rd=1.20:0.00 / mixed_ref=1 / me_range=32 / chroma_me=1 / trellis=2 / 8x8dct=1 / cqm=0 / deadzone=21,11 / fast_pskip=0 / chroma_qp_offset=-2 / threads=12 / lookahead_threads=2 / sliced_threads=0 / nr=0 / decimate=1 / interlaced=0 / bluray_compat=0 / constrained_intra=0 / bframes=11 / b_pyramid=2 / b_adapt=2 / b_bias=0 / direct=1 / weightb=1 / open_gop=0 / weightp=2 / keyint=240 / keyint_min=22 / scenecut=40 / intra_refresh=0 / rc_lookahead=40 / rc=crf / mbtree=0 / crf=16.5 / qcomp=0.60 / qpmin=10 / qpmax=69 / qpstep=4 / vbv_maxrate=50000 / vbv_bufsize=62500 / crf_max=0.0 / nal_hrd=none / ip_ratio=1.40 / pb_ratio=1.30 / aq=1:1.00
Язык : English

Аудио #1
Идентификатор : 2
Формат : DTS
Формат/Информация : Digital Theater Systems
Идентификатор кодека : A_DTS
Продолжительность : 1 ч. 39 м.
Вид битрейта : Постоянный
Битрейт : 755 Кбит/сек
Каналы : 6 каналов
Расположение каналов : Front: L C R, Side: L R, LFE
Частота : 48,0 КГц
Битовая глубина : 24 бит
Метод сжатия : С потерями
Размер потока : 537 Мбайт (8%)
Заголовок : |Дубляж|
Язык : Russian

Аудио #2
Идентификатор : 3
Формат : DTS
Формат/Информация : Digital Theater Systems
Идентификатор кодека : A_DTS
Продолжительность : 1 ч. 39 м.
Вид битрейта : Постоянный
Битрейт : 1510 Кбит/сек
Каналы : 6 каналов
Расположение каналов : Front: L C R, Side: L R, LFE
Частота : 48,0 КГц
Битовая глубина : 24 бит
Метод сжатия : С потерями
Размер потока : 1,05 Гбайт (15%)
Язык : English

Текст #1
Идентификатор : 4
Формат : UTF-8
Идентификатор кодека : S_TEXT/UTF8
Идентификатор кодека/Информация : UTF-8 Plain Text
Язык : Russian

Текст #2
Идентификатор : 5
Формат : UTF-8
Идентификатор кодека : S_TEXT/UTF8
Идентификатор кодека/Информация : UTF-8 Plain Text
Язык : Ukrainian

Меню
00:00:00.000 : :00:00:00.000
00:04:11.209 : :00:04:11.209
00:07:33.578 : :00:07:33.578
00:13:52.623 : :00:13:52.623
00:19:20.200 : :00:19:20.200
00:22:52.079 : :00:22:52.079
00:29:08.705 : :00:29:08.705
00:36:14.463 : :00:36:14.463
00:44:18.947 : :00:44:18.947
00:50:16.138 : :00:50:16.138
00:55:53.183 : :00:55:53.183
01:02:21.446 : :01:02:21.446
01:14:48.567 : :01:14:48.567
01:24:34.402 : :01:24:34.402
01:29:43.127 : :01:29:43.127
01:34:19.153 : :01:34:19.153

Свернуть

Скриншоты
ИзображениеИзображениеИзображениеИзображениеИзображение
Свернуть

Не в сети
Профиль  
Начать новую темуОтветить на тему  [ 1 сообщение ] 
Вы не можете начинать темы
Вы не можете отвечать на сообщения
Вы не можете редактировать свои сообщения
Вы не можете удалять свои сообщения