Правила форума

  • В этом разделе создание новых тем Запрещено.
  • Для создания новых тем пользуйтесь Корневым разделом DVD и HD фильмы.
Начать новую темуОтветить на тему  [ Сообщений: 12 ] 
Торрент файл
Размер: 7.94 GB • Зарегистрирован: 3 года 3 месяца • Статус: Проверено
Скачан: 234 раза • Желающих скачать: 0 • Поблагодарили: 53 раза
 Раздают: 2  |  0 KB/s  ]   Качают: 0  |  0 KB/s  ] 
Сообщения
 Добавлено: 2013-09-05 14:47
Аватара пользователя
Стаж: 9 лет 1 месяц
Сообщений: 8083
Спасибок: 122313
Лайков: 1195
Зажигание / Combustion

«И вспыхнет страсть»

Изображение


Год выпуска: 2013
Страна: Изображение Испания
Жанр: мелодрама, приключения, боевик
Продолжительность: 01:43:57
Субтитры: Русские
Перевод: Профессиональный (полное дублирование) [Лицензия]


Режиссер: Даниэль Кальпарсоро
Сценарий: Карлос Монтеро, Джейм Вака
Продюсер: Мерседес Гамеро, Франсиско Рамос, Хуан Карлос Каро
Оператор: Дэниэл Аранио

В ролях: Алекс Гонсалес, Адриана Угарте, Альберто Амманн, Мария Кастро, Луис Саера, Марта Ниэто, Кристиан Мулас, Хуан Пабло Шук, Мария Каласса

Описание: Навас и Ари — идеальная пара и профессиональные мошенники. Она — роковая красотка, соблазняющая богатых мужчин, а он — жестокий налетчик, который их грабит. Все меняется, когда Навас и Ари выбирают себе новую жертву — богатенького красавчика Микеля, в которого Ари влюбляется без памяти…

Изображение Изображение

Раздача группы: Изображение

Качество: BDRip (1080p)
Формат: Matroska
Видео: MPEG-4 AVC, 9669 Кбит/с, 1920x804
Аудио №1: Русский (AC3, 48,0 КГц, 6 ch, 640 Кбит/c)
Аудио №2: Испанский (AC3, 48,0 КГц, 6 ch, 640 Кбит/c)

MediaInfo
Общее
Уникальный идентификатор : 207483048324588082348864677564162964166 (0x9C17C8151C0E365F8BD3F5E0185EFAC6)
Полное имя : C:\Фильмы\Zazhiganie.(2013).BDRip.1080p.R.G.Daredevil.mkv
Формат : Matroska
Версия формата : Version 4 / Version 2
Размер файла : 7,94 Гбайт
Продолжительность : 1 ч. 43 м.
Общий поток : 10,9 Мбит/сек
Название фильма : Зажигание.(2013).BDRip.1080p.(DVD9).[NoLimits-Team]
Дата кодирования : UTC 2013-09-04 08:04:23
Программа кодирования : mkvmerge v6.3.0 ('You can't stop me!') built on Jun 28 2013 20:09:41
Библиотека кодирования : libebml v1.3.0 + libmatroska v1.4.0

Видео
Идентификатор : 1
Формат : AVC
Формат/Информация : Advanced Video Codec
Профиль формата : High@L4.1
Параметр CABAC формата : Да
Параметр ReFrames формата : 5 кадров
Идентификатор кодека : V_MPEG4/ISO/AVC
Продолжительность : 1 ч. 43 м.
Битрейт : 9669 Кбит/сек
Ширина : 1920 пикселей
Высота : 804 пикселя
Соотношение сторон : 2,40:1
Режим частоты кадров : Постоянный
Частота кадров : 24,000 кадра/сек
Цветовое пространство : YUV
Субдискретизация насыщенности : 4:2:0
Битовая глубина : 8 бит
Тип развёртки : Прогрессивная
Бит/(Пиксели*Кадры) : 0.261
Размер потока : 6,86 Гбайт (86%)
Заголовок : Зажигание.(2013).BDRip.1080p.(DVD9).[NoLimits-Team]
Библиотека кодирования : x264 core 138 r2358 9e941d1
Настройки программы : cabac=1 / ref=5 / deblock=1:-3:-3 / analyse=0x3:0x133 / me=umh / subme=11 / psy=1 / psy_rd=1.00:0.00 / mixed_ref=1 / me_range=32 / chroma_me=1 / trellis=2 / 8x8dct=1 / cqm=0 / deadzone=21,11 / fast_pskip=0 / chroma_qp_offset=-2 / threads=12 / lookahead_threads=1 / sliced_threads=0 / nr=0 / decimate=1 / interlaced=0 / bluray_compat=0 / constrained_intra=0 / bframes=6 / b_pyramid=2 / b_adapt=2 / b_bias=0 / direct=3 / weightb=1 / open_gop=0 / weightp=2 / keyint=240 / keyint_min=24 / scenecut=40 / intra_refresh=0 / rc=2pass / mbtree=0 / bitrate=9669 / ratetol=2.0 / qcomp=0.60 / qpmin=0 / qpmax=69 / qpstep=4 / cplxblur=20.0 / qblur=0.5 / ip_ratio=1.40 / pb_ratio=1.30 / aq=1:1.00
Язык : English
Default : Да
Forced : Нет

Аудио #1
Идентификатор : 2
Формат : AC-3
Формат/Информация : Audio Coding 3
Расширение режима : CM (complete main)
Параметр Endianness формата : Big
Идентификатор кодека : A_AC3
Продолжительность : 1 ч. 43 м.
Вид битрейта : Постоянный
Битрейт : 640 Кбит/сек
Каналы : 6 каналов
Расположение каналов : Front: L C R, Side: L R, LFE
Частота : 48,0 КГц
Битовая глубина : 16 бит
Метод сжатия : С потерями
Размер потока : 476 Мбайт (6%)
Заголовок : Дублированный
Язык : Russian
Default : Да
Forced : Нет

Аудио #2
Идентификатор : 3
Формат : AC-3
Формат/Информация : Audio Coding 3
Расширение режима : CM (complete main)
Параметр Endianness формата : Big
Идентификатор кодека : A_AC3
Продолжительность : 1 ч. 43 м.
Вид битрейта : Постоянный
Битрейт : 640 Кбит/сек
Каналы : 6 каналов
Расположение каналов : Front: L C R, Side: L R, LFE
Частота : 48,0 КГц
Битовая глубина : 16 бит
Метод сжатия : С потерями
Размер потока : 476 Мбайт (6%)
Заголовок : Оригинал
Язык : Spanish
Default : Нет
Forced : Нет

Текст
Идентификатор : 4
Формат : UTF-8
Идентификатор кодека : S_TEXT/UTF8
Идентификатор кодека/Информация : UTF-8 Plain Text
Заголовок : Полные
Язык : Russian
Default : Нет
Forced : Нет

Меню
00:00:00.000 : :Chapter 01
00:08:18.791 : :Chapter 02
00:15:20.958 : :Chapter 03
00:23:51.875 : :Chapter 04
00:32:20.416 : :Chapter 05
00:40:00.333 : :Chapter 06
00:48:33.333 : :Chapter 07
00:56:48.166 : :Chapter 08
01:03:31.250 : :Chapter 09
01:12:33.125 : :Chapter 10
01:21:38.833 : :Chapter 11
01:36:01.166 : :Chapter 12
Свернуть
Знаете ли вы, что...
В фильме герой Алекса Гонсалеса Микель бросает ради Ари (Адриана Угарте) свою невесту. Похожие события произошли и в реальной жизни Алекса — после съемок фильма «Зажигание» он разорвал свою помолвку с сестрой Пенелопы Крус — испанской актрисой Моникой Крус.
Свернуть
Скриншоты
Изображение
Изображение
Изображение
Изображение
Свернуть


Последний раз редактировалось krazz 2013-09-08 21:13, всего редактировалось 1 раз.
Не в сети
Профиль  
 Добавлено: 2013-09-05 17:06 (спустя 2 часа 19 минут)
Dream Team
Аватара пользователя
Стаж: 7 лет 5 месяцев
Сообщений: 4429
Спасибок: 9324
Лайков: 470
Кто смотрел... трэш?
_________________
Изображение
Карпов: "Борь, Еноты!"
Не в сети
Профиль  
 Добавлено: 2013-09-05 19:44 (спустя 2 часа 37 минут)
Неудержимые
Стаж: 8 лет 9 месяцев
Сообщений: 1039
Лайков: 315
Весьма добротно склеенный гешпанский кин. Заслуженная четверка.
Не в сети
Профиль  
 Добавлено: 2013-09-07 14:50 (спустя 1 день 19 часов)
Стаж: 7 лет 3 месяца
Сообщений: 6
Лайков: 1
Звук не совпадает. отстаёт
Не в сети
Профиль  
 Добавлено: 2013-09-07 21:19 (спустя 6 часов)
Стаж: 5 лет 7 месяцев
Сообщений: 7
звук абсолютно не совпадает!!!
жаль не поверил предыдущему оратору
Не в сети
Профиль  
 Добавлено: 2013-09-07 22:12 (спустя 52 минуты)
Аватара пользователя
Стаж: 4 года 10 месяцев
Возраст: 24
Сообщений: 66
эх..зря качал, звук не совпадает.
_________________
Изображение
Не в сети
Профиль  
 Добавлено: 2013-09-08 08:37 (спустя 10 часов)
Аватара пользователя
Стаж: 8 лет 3 месяца
Сообщений: 80
Спасибок: 242
И прилепили ещё с косячным звуком
Не в сети
Профиль  
 Добавлено: 2013-09-08 21:15 (спустя 12 часов)
Аватара пользователя
Стаж: 9 лет 1 месяц
Сообщений: 8083
Спасибок: 122313
Лайков: 1195
Торрент обновлен, звук синхронизирован.
Не в сети
Профиль  
 Добавлено: 2013-09-12 16:25 (спустя 3 дня)
Аватара пользователя
Стаж: 8 лет 11 месяцев
Сообщений: 170
Спасибок: 139
тупое кино 4 из 10
Не в сети
Профиль  
 Добавлено: 2013-09-22 20:21 (спустя 10 дней)
Кинокомментатор
Аватара пользователя
Стаж: 9 лет 1 месяц
Сообщений: 1332
Лайков: 54
ээээх любовь) а на деле предательство кидалово и обоюдные тёрки)) в общем посмотреть можно) ибо гонки тачки тёлки и всё такое) на форсаж чем то похоже) даже!) смотреть конечно:) 7/10
Не в сети
Профиль  
 Добавлено: 2013-09-24 13:23 (спустя 1 день 17 часов)
Аватара пользователя
Стаж: 6 лет 4 месяца
Возраст: 25
Сообщений: 50
Посмотрел и не пожалел :D
Не в сети
Профиль  
 Добавлено: 2013-09-29 09:16 (спустя 4 дня)
Аватара пользователя
Стаж: 8 лет 7 месяцев
Сообщений: 49
Лайков: 1
Посмотрел, смотреть обязательно с девушкой, если вы здоровые молодые организмы - будет секс ))))
Не в сети
Профиль  
Начать новую темуОтветить на тему  [ Сообщений: 12 ] 
Вы не можете начинать темы
Вы не можете отвечать на сообщения
Вы не можете редактировать свои сообщения
Вы не можете удалять свои сообщения