Правила форума

  • В этом разделе создание новых тем Запрещено.
  • Для создания новых тем пользуйтесь Корневым разделом DVD и HD фильмы.
Начать новую темуОтветить на тему  [ Сообщений: 4 ] 
Торрент файл
Размер: 5.77 GB • Зарегистрирован: 4 года 3 месяца • Статус: Проверено
Скачан: 97 раз • Желающих скачать: 0 • Поблагодарили: 20 раз
 Раздают: 0  |  0 KB/s  ]   Качают: 0  |  0 KB/s  ] 
 Полного источника не было 2 года 11 месяцев 
Сообщения
 Добавлено: 2012-08-14 11:26
Модератор
Аватара пользователя
Стаж: 6 лет 10 месяцев
Возраст: 33
Сообщений: 5908
Спасибок: 61265
Лайков: 3540
Изображение

Заклинательница акул / Dark Tide


Год выпуска: 2011
Страна: США, ЮАР
Слоган: «В бухте смерти нет места слабым»
Жанр: триллер, драма, приключения
Продолжительность: 01:53:56
Перевод: Профессиональный (полное дублирование) Лицензия
Режиссер: Джон Стокуэлл
Сценарий: Amy Sorlie, Ронни Кристенсен
Продюсер: Джанетт Бюрлинг, Мэттью Е. Чоссе, Брайан Донован, Влокки Кунэ, Энтони Гудас
Оператор: Жан-Франсуа Хенсгенс
Композитор: Марк Сэйфритц
В ролях: Холли Берри, Оливье Мартинес, Ральф Браун, Люк Тайлер, Mark Elderkin, Thoko Ntshinga, Sizwe Msutu
Бюджет: $25 000 000
Сборы в России: $641 758
Сборы в мире: $432 274
Описание: Кейт Мэтьюсон, специализирующаяся на акулах биолог и документалист, всячески избегала глубоководных погружений после трагической гибели ее наставника. Когда-то она была известна тем, что свободно плавала в океане с белыми акулами, теперь же Кейт зарабатывает на жизнь проведением обычных морских экскурсий. Однако неожиданный приезд ее давнего партнера и бывшего мужа убеждает ее бросить вызов собственным демонам и вернуться в глубокие воды, где обитают эти страшные хищники.
Изображение
MPAA: Изображение
Мировая премьера: 3 августа 2011
Релиз на DVD: 16 августа 2012, «CP Дистрибуция»
Релиз на Blu-ray: 16 августа 2012, «CP Дистрибуция»
Релиз группы: Изображение
Раздача группы: Изображение
Качество: BDRip, 720p
Формат: Matroska
Видео: AVC; 1280x544 (2.35:1); 5210 Kbps; 23,976 fps; 0,312 bit/pixel
Аудио №1: Russian; AC3; 384 Kbps; CBR; 6 ch
Аудио №2: DTS; 1509 Kbps; CBR; 6 ch; 24 bit
Оригинал
Субтитры №1: Russian
Субтитры №2: Russian
Субтитры №3: Ukrainian
Субтитры №4:

MediaInfo
Формат : Matroska
Версия формата : Version 2
Размер файла : 5,77 Гбайт
Продолжительность : 1 ч. 53 м.
Общий поток : 7249 Кбит/сек
Название фильма : Dark.Tide.2012.720p.BluRay.x264.DTS-HDChina
Дата кодирования : UTC 2012-08-13 19:53:56
Программа кодирования : mkvmerge v5.7.0 ('The Whirlwind') built on Jul 10 2012 18:39:26
Библиотека кодирования : libebml v1.2.3 + libmatroska v1.3.0

Видео
Идентификатор : 1
Формат : AVC
Формат/Информация : Advanced Video Codec
Профиль формата : High@L4.1
Параметр CABAC формата : Да
Параметр ReFrames формата : 11 кадров
Идентификатор кодека : V_MPEG4/ISO/AVC
Продолжительность : 1 ч. 53 м.
Битрейт : 5367 Кбит/сек
Ширина : 1280 пикселей
Высота : 544 пикселя
Соотношение сторон : 2,35:1
Частота кадров : 23,976 кадра/сек
Цветовое пространство : YUV
Субдискретизация насыщенности : 4:2:0
Битовая глубина : 8 бит
Тип развёртки : Прогрессивная
Бит/(Пиксели*Кадры) : 0.321
Размер потока : 4,15 Гбайт (72%)
Библиотека кодирования : x264 core 120 r2164 da19765
Настройки программы : cabac=1 / ref=11 / deblock=1:-3:-3 / analyse=0x3:0x133 / me=umh / subme=10 / psy=1 / psy_rd=1.00:0.00 / mixed_ref=1 / me_range=32 / chroma_me=1 / trellis=2 / 8x8dct=1 / cqm=0 / deadzone=21,11 / fast_pskip=1 / chroma_qp_offset=-2 / threads=12 / sliced_threads=0 / nr=0 / decimate=0 / interlaced=0 / bluray_compat=0 / constrained_intra=0 / bframes=7 / b_pyramid=2 / b_adapt=2 / b_bias=0 / direct=3 / weightb=1 / open_gop=0 / weightp=2 / keyint=250 / keyint_min=23 / scenecut=40 / intra_refresh=0 / rc_lookahead=60 / rc=2pass / mbtree=0 / bitrate=5367 / ratetol=1.0 / qcomp=0.60 / qpmin=0 / qpmax=69 / qpstep=4 / cplxblur=20.0 / qblur=0.5 / vbv_maxrate=30000 / vbv_bufsize=30000 / nal_hrd=none / ip_ratio=1.50 / pb_ratio=1.30 / aq=1:1.00
Язык : English

Аудио #1
Идентификатор : 2
Формат : AC-3
Формат/Информация : Audio Coding 3
Расширение режима : CM (complete main)
Идентификатор кодека : A_AC3
Продолжительность : 1 ч. 53 м.
Вид битрейта : Постоянный
Битрейт : 384 Кбит/сек
Каналы : 6 каналов
Расположение каналов : Front: L C R, Side: L R, LFE
Частота : 48,0 КГц
Битовая глубина : 16 бит
Метод сжатия : С потерями
Размер потока : 313 Мбайт (5%)
Язык : Russian

Аудио #2
Идентификатор : 3
Формат : DTS
Формат/Информация : Digital Theater Systems
Идентификатор кодека : A_DTS
Продолжительность : 1 ч. 53 м.
Вид битрейта : Постоянный
Битрейт : 1510 Кбит/сек
Каналы : 6 каналов
Расположение каналов : Front: L C R, Side: L R, LFE
Частота : 48,0 КГц
Битовая глубина : 24 бит
Метод сжатия : С потерями
Размер потока : 1,20 Гбайт (21%)
Язык : English

Текст #1
Идентификатор : 4
Формат : UTF-8
Идентификатор кодека : S_TEXT/UTF8
Идентификатор кодека/Информация : UTF-8 Plain Text
Заголовок : Forced
Язык : Russian

Текст #2
Идентификатор : 5
Формат : UTF-8
Идентификатор кодека : S_TEXT/UTF8
Идентификатор кодека/Информация : UTF-8 Plain Text
Язык : Russian

Текст #3
Идентификатор : 6
Формат : UTF-8
Идентификатор кодека : S_TEXT/UTF8
Идентификатор кодека/Информация : UTF-8 Plain Text
Язык : Ukrainian

Текст #4
Идентификатор : 7
Формат : UTF-8
Идентификатор кодека : S_TEXT/UTF8
Идентификатор кодека/Информация : UTF-8 Plain Text
Язык : English

Свернуть

Скриншоты

Изображение
Изображение
Изображение
Изображение
Свернуть
_________________
ИзображениеИзображение Изображение
Изображение
 tany1984 и di-ys1 нравится это.
Не в сети
Профиль  
 Добавлено: 2012-08-14 11:36 (спустя 9 минут)
Модератор
Аватара пользователя
Стаж: 6 лет 10 месяцев
Возраст: 33
Сообщений: 5908
Спасибок: 61265
Лайков: 3540
На раздаче.
_________________
ИзображениеИзображение Изображение
Изображение
Не в сети
Профиль  
 Добавлено: 2012-08-15 14:26 (спустя 1 день 2 часа)
Стаж: 5 лет 3 месяца
Сообщений: 150
Лайков: 2
Фильм норм!
Не в сети
Профиль  
 Добавлено: 2012-08-20 21:57 (спустя 5 дней)
Аватара пользователя
Стаж: 8 лет 3 месяца
Сообщений: 48
Что же звука на телеке через юсби нету :ny_tik:
Не в сети
Профиль  
Начать новую темуОтветить на тему  [ Сообщений: 4 ] 
Вы не можете начинать темы
Вы не можете отвечать на сообщения
Вы не можете редактировать свои сообщения
Вы не можете удалять свои сообщения