Правила форума

  • В этом разделе создание новых тем Запрещено.
  • Для создания новых тем пользуйтесь Корневым разделом DVD и HD фильмы.
Начать новую темуОтветить на тему  [ Сообщений: 2 ] 
Торрент файл
Размер: 3.91 GB • Зарегистрирован: 4 года 8 месяцев • Статус: Проверено
Скачан: 91 раз • Желающих скачать: 0 • Поблагодарили: 12 раз
 Раздают: 0  |  0 KB/s  ]   Качают: 0  |  0 KB/s  ] 
 Полного источника не было 3 года 2 месяца 
Сообщения
 Добавлено: 2012-03-18 12:01
Книголюб
Аватара пользователя
Стаж: 7 лет 2 месяца
Сообщений: 2823
Спасибок: 48826
Лайков: 73
Заклинательница акул
Dark Tide

Изображение


Год выпуска: 2012
Страна: США, ЮАР
Слоган: «In Shark Alley, courage runs deep»
Жанр: триллер, драма, приключения
Продолжительность: 01:53:47
Перевод: Любительский (одноголосый закадровый)

Режиссёр: Джон Стокуэлл
В ролях: Холли Берри, Оливье Мартинес, Ральф Браун, Люк Тайлер, Mark Elderkin, Thoko Ntshinga, Sizwe Msutu
Описание: Кейт Мэтьюсон, специализирующаяся на акулах биолог и документалист, всячески избегала глубоководных погружений после трагической гибели ее наставника. Когда-то она была известна тем, что свободно плавала в океане с белыми акулами, теперь же Кейт зарабатывает на жизнь проведением обычных морских экскурсий. Однако неожиданный приезд ее давнего партнера и бывшего мужа убеждает ее бросить вызов собственным демонам и вернуться в глубокие воды, где обитают эти страшные хищники.
Рейтинг MPAA: Рейтинг PG-13 (Дети до 13 лет допускаются на фильм только с родителями)
Мировая премьера: 8 марта 2012
Премьера в России: 12 апреля 2012, «Каро-Премьер»
Бюджет: $25 000 000

Качество: HQTVRip
Формат: MKV
Видео кодек: H.264
Аудио кодек: AC3 (Dolby Digital)
Видео: 1280 x 544 23.97fps 4200 kbps 0.252Bits/Pixel
Аудио #1: Русский, AC3 5.1, 384 kbps, 48 kHz
Аудио #2: Английский, AC3 5.1, 384 kbps, 48 kHz
MediaInfo
General
Unique ID : 241312987360993976319971462138934825622 (0xB58B30DA6B3C05C79E6BB3B1F08F9296)
Complete name : D:\Dark.Tide..mkv
Format : Matroska
Format version : Version 2
File size : 3.91 GiB
Duration : 1h 53mn
Overall bit rate : 4 917 Kbps
Encoded date : UTC 2012-03-17 12:35:50
Writing application : mkvmerge v5.2.0 ('I can't explain') built on Dec 18 2011 18:12:03
Writing library : libebml v1.2.3 + libmatroska v1.3.0

Video
ID : 1
Format : AVC
Format/Info : Advanced Video Codec
Format profile : High@L4.1
Format settings, CABAC : Yes
Format settings, ReFrames : 1 frame
Format settings, GOP : M=1, N=4
Codec ID : V_MPEG4/ISO/AVC
Duration : 1h 53mn
Bit rate : 4 200 Kbps
Width : 1 280 pixels
Height : 544 pixels
Display aspect ratio : 2.35:1
Frame rate : 23.976 fps
Color space : YUV
Chroma subsampling : 4:2:0
Bit depth : 8 bits
Scan type : Progressive
Bits/(Pixel*Frame) : 0.252
Stream size : 3.22 GiB (82%)
Writing library : x264 core 68 r1195bm 5d75a9b
Encoding settings : cabac=1 / ref=1 / deblock=1:0:0 / analyse=0x3:0x13 / me=umh / subme=7 / psy_rd=0.0:0.0 / mixed_ref=0 / me_range=16 / chroma_me=1 / trellis=1 / 8x8dct=1 / cqm=0 / deadzone=21,11 / chroma_qp_offset=0 / threads=1 / thread_queue=1 / nr=0 / decimate=1 / mbaff=0 / bframes=0 / keyint=250 / keyint_min=25 / scenecut=40 / rc=abr / bitrate=4200 / ratetol=1.0 / qcomp=0.60 / qpmin=10 / qpmax=51 / qpstep=4 / ip_ratio=1.40 / aq=2:1.00
Language : English
Default : Yes
Forced : No

Audio #1
ID : 2
Format : AC-3
Format/Info : Audio Coding 3
Mode extension : CM (complete main)
Codec ID : A_AC3
Duration : 1h 53mn
Bit rate mode : Constant
Bit rate : 384 Kbps
Channel(s) : 6 channels
Channel positions : Front: L C R, Side: L R, LFE
Sampling rate : 48.0 KHz
Bit depth : 16 bits
Compression mode : Lossy
Stream size : 313 MiB (8%)
Title : VO
Language : Russian
Default : Yes
Forced : No

Audio #2
ID : 3
Format : AC-3
Format/Info : Audio Coding 3
Mode extension : CM (complete main)
Codec ID : A_AC3
Duration : 1h 53mn
Bit rate mode : Constant
Bit rate : 384 Kbps
Channel(s) : 6 channels
Channel positions : Front: L C R, Side: L R, LFE
Sampling rate : 48.0 KHz
Bit depth : 16 bits
Compression mode : Lossy
Stream size : 313 MiB (8%)
Title : Original
Language : English
Default : No
Forced : No


Свернуть

Скриншоты
Изображение
Изображение
Изображение
Свернуть


Последний раз редактировалось coldun 2012-03-23 13:43, всего редактировалось 1 раз.
Не в сети
Профиль  
 Добавлено: 2012-03-18 15:18 (спустя 3 часа)
Аватара пользователя
Стаж: 8 лет 3 месяца
Возраст: 43
Сообщений: 3290
Спасибок: 21012
Лайков: 3
coldun
Для HD и HQRip-ов необходимы скриншоты в формате PNG, для остальных форматов PNG так же рекомендуется.
Исправьте пожалуйста :)
Как все исправите, то сообщите пожалуйста мне или любому модератору видео, обязательно со ссылкой на релиз
_________________
Изображение
Не в сети
Профиль  
Начать новую темуОтветить на тему  [ Сообщений: 2 ] 
Вы не можете начинать темы
Вы не можете отвечать на сообщения
Вы не можете редактировать свои сообщения
Вы не можете удалять свои сообщения