Правила форума

  • В этом разделе создание новых тем Запрещено.
  • Для создания новых тем пользуйтесь Корневым разделом DVD и HD фильмы.
Начать новую темуОтветить на тему  [ Сообщений: 3 ] 
Торрент файл
Размер: 6.82 GB • Зарегистрирован: 3 года 1 месяц • Статус: Проверено
Скачан: 83 раза • Желающих скачать: 0 • Поблагодарили: 41 раз
 Раздают: 0  |  0 KB/s  ]   Качают: 0  |  0 KB/s  ] 
 Полного источника не было 5 часов 
Сообщения
 Добавлено: 2013-10-30 09:28
Руководитель релиз-группы
Аватара пользователя
Стаж: 9 лет 1 месяц
Возраст: 28
Сообщений: 4244
Спасибок: 31998
Лайков: 32
Изображение
Заклятие / The Conjuring


Год выпуска | 2013
Страна | США
Жанр | ужасы ∙ триллер ∙ биография
Продолжительность | 01:51:58
Перевод | Профессиональный (полное дублирование) ∙ Оригинальный ∙ Субтитры (русские, английские)
Режиссер | Джеймс Ван
Сценарий | Чад Хэйес ∙ Кэри Хэйес
Продюсер | Роб Кауэн ∙ Тони ДеРоза-Грюнд ∙ Питер Сафран ∙ Уолтер Хамада ∙ Дэйв Нейстадтер
Оператор | Джон Р. Леонетти
Композитор | Джозеф Бишара

В ролях | Вера Фармига (Lorraine Warren) ∙ Патрик Уилсон (Ed Warren) ∙ Рон Ливингстон (Roger Perron) ∙ Лили Тейлор (Carolyn Perron) ∙ Шэнли Касвелл (Andrea) ∙ Хейли МакФарланд (Nancy) ∙ Джои Кинг (Christine) ∙ Маккензи Фой (Cindy) ∙ Кайла Дивер (April) ∙ Шэннон Кук-Чун (Drew) ∙ Джон Бразертон (Brad) ∙ Стерлинг Джеринс (Judy Warren) и др.
Дублёры | Елена Шульман (Lorraine Warren) ∙ Александр Дзюба (Ed Warren) ∙ Константин Карасик (Roger Perron) ∙ Мария Овчинникова (Carolyn Perron) ∙ Мария Иващенко (Andrea) ∙ Лиза Мартиросова (Nancy) ∙ Анна Денисова (Christine) ∙ Екатерина Кузнецова (Cindy) ∙ Василиса Емельянова (April) ∙ Станислав Тикунов (Drew) ∙ Денис Некрасов (Brad) ∙ Маша Емельянова (Judy Warren) и др.
Описание | В основе картины лежит реальная история семьи Перрон, которые утверждали, что жили в окружении привидений, как добрых, так и злых. Духи населяли дом на Род-Айленде, в котором Перроны проживали в семидесятых годах XX века.
Релиз | ИзображениеРаздача | Изображение

kinopoisk.ru | 7.493 (23 583)
Бюджет | $20 000 000
Сборы в США | $137 389 479
Сборы в России | $10 082 247
Сборы в мире | $312 489 479
Мировая премьера | 8 июня 2013
Релиз на DVD | 5 декабря 2013 ∙ CP Дистрибуция»
Релиз на Blu-Ray | 5 декабря 2013 ∙ «CP Дистрибуция»
Знаете ли Вы, что...
  • Это второй раз, когда композитор фильма Джозеф Бишара исполнил роль главного призрака в фильме Джеймса Вана. Предыдущим фильмом был «Астрал» (2010).
  • Для подготовки к своей роли Лили Тейлор просматривала фильм «Изгоняющий дьявола» (1973).
  • Андреа Перрон написала роман в трех частях на основе событий, происходивших в ее доме. Книга вышла под названием «Дом тьмы, дом света» (House of Darkness, House of Light). События, которые она описала, отражены в фильме. Сама Перрон относится к фильму как к произведению искусства, а не как к художественному произведению.
  • Лоррэйн Уоррен и Андреа Перрон (Andrea Perron) работали в качестве консультантов режиссера Джеймса Вана и сценаристов этого фильма. Они оба утверждают, что фильм точно отражает реальную историю того, что происходило с семьей Перрон на протяжении 10 лет их проживания на ферме.
  • Эд Уоррен и Лоррэйн Уоррен исследовали дом семьи Перрон с 1973 по 1974 год.
  • Фильм, основанный на истории с домом семьи Перрон, собирались снять на протяжении 20 лет. Впервые эта история всплыла, когда Эд Уоррен показал запись своего интервью с Каролин Перрон продюсеру Тони ДеРоза-Грюнду.
  • Режиссер Джеймс Ван пытался передать атмосферу фильмов ужасов 1970-х годов.
  • Реальная кукла Аннабель была тряпичной, а не сломанной фарфоровой куклой, как изображено в фильме.
  • Лоррэйн Уоррен сыграла эпизодическую роль пожилой женщины в первом ряду в классе, когда Каролин слушает презентацию Уорренов.
  • Штат Род-Айленд не требует от продавцов домов рассказывать о зарегистрированных случаях паранормальных явлений потенциальным покупателям. Вот почему семейство Перрон не знало о всех случившихся там событиях.
  • Кинокамера, которую используют Уоренны, - это Bolex H16 Rex-5, выпускавшаяся с 1966 по 1976 год. Отличительной особенностью этой механической камеры является необходимость завода пружинного механизма после каждых 40 секунд съемки, при этом камера вмещает в себя лишь 30 метров (2,5 минуты) пленки. Во всех сценах, где задействована камера, ей снимают больше минуты без всякого завода пружины, свободно отпуская ручку завода, что может привести к поломке камеры.
  • Восемь поколений жили и умерли в доме, прежде чем Перроны въехали туда. Андреа Перрон предполагает, что некоторые из духов этих семей никогда не покидали дом. В этом доме было два самоубийства, одна смерть от яда, изнасилование и убийство 11-летней девочки, два утопления и случай, когда четверо мужчин замерзли насмерть. Большинство смертей произошло в семье Арнольд. Вирсавия Шерман как раз из этой семьи.
  • Настоящую Вирсавию Шерман подозревали в колдовстве и убийстве несовершеннолетнего ребенка, но ее имя было юридически очищено, после того как суд признал ее невиновной. Она умерла естественной смертью в 1885 году, а не через повешение, как показано в фильме. А похоронена она в Харрисвилле (Беррилвилл, Род-Айленд, США).
  • Когда Эд Уоррен и Лоррэйн Уоррен слушают записанное интервью, стрелка, показывающая уровень звука на проигрывателе, не двигается, как должна при воспроизведении звуковой дорожки.
  • В сцене с болотом виден кипарис. Однако они растут гораздо южнее Род-Айленда.
  • Когда Джуди спускается по лестнице, над ней можно заметить детектор дыма. Хотя такие детекторы были доступны в 1968 году, но тогда они были выполнены в форме пчелиного улья, а не в форме диска, как современные.
  • Белый грузовик GMC, который тянет за собой семейный микроавтобус, появился только в 1973 году, а семья въехала в дом в 1971-м.
Свернуть

Качество | BDRip 720p
Контейнер | Matroska
Видео | AVC ∙ 1280x532 (2.40:1) ∙ 5762 kbps ∙ 23.976 fps ∙ 0.353 bit/pixel
Аудио #1 | AC3 ∙ 640 kbps ∙ CBR ∙ 6 channels ∙ 16 bit /RUS/
Аудио #2 | DTS ∙ 1510 kbps ∙ CBR ∙ 6 channels ∙ 24 bit /ENG/
Аудио #3 | AC3 ∙ 640 kbps ∙ CBR ∙ 6 channels ∙ 16 bit /DESCR/

MediaInfo
General
Unique ID : 233595357703401392431014946609094723141 (0xAFBCD45555532D0181241643DD0C0645)
Complete name : I:\films\The.Conjuring.2013.BDRip.720p.mkv
Format : Matroska
File size : 6.82 GiB
Duration : 1h 51mn
Overall bit rate : 8 726 Kbps
Movie name : The Conjuring (2013) - Release for HDCLUB
Encoded date : UTC 2013-10-29 23:14:26
Writing application : mkvmerge v3.4.0 ('Rapunzel') built on May 15 2010 09:38:20
Writing library : libebml v0.8.0 + libmatroska v0.9.0

Video
ID : 1
Format : AVC
Format/Info : Advanced Video Codec
Format profile : High@L4.1
Format settings, CABAC : Yes
Format settings, ReFrames : 12 frames
Codec ID : V_MPEG4/ISO/AVC
Duration : 1h 51mn
Bit rate : 5 763 Kbps
Width : 1 280 pixels
Height : 532 pixels
Display aspect ratio : 2.40:1
Frame rate : 23.976 fps
Color space : YUV
Chroma subsampling : 4:2:0
Bit depth : 8 bits
Scan type : Progressive
Bits/(Pixel*Frame) : 0.353
Stream size : 4.51 GiB (66%)
Title : The Conjuring (2013) - Release for HDCLUB
Writing library : x264 core 138 r2358kMod 9e941d1
Encoding settings : cabac=1 / ref=12 / deblock=1:-3:-3 / analyse=0x3:0x113 / me=umh / subme=10 / psy=1 / fade_compensate=0.00 / psy_rd=1.05:0.00 / mixed_ref=1 / me_range=16 / chroma_me=1 / trellis=2 / 8x8dct=1 / cqm=0 / deadzone=21,11 / fast_pskip=0 / chroma_qp_offset=-2 / threads=3 / lookahead_threads=1 / sliced_threads=0 / nr=0 / decimate=0 / interlaced=0 / bluray_compat=0 / constrained_intra=0 / bframes=8 / b_pyramid=2 / b_adapt=2 / b_bias=0 / direct=3 / weightb=1 / open_gop=0 / weightp=2 / keyint=250 / keyint_min=23 / scenecut=40 / intra_refresh=0 / rc_lookahead=30 / rc=crf / mbtree=0 / crf=16.0000 / qcomp=0.70 / qpmin=0 / qpmax=69 / qpstep=4 / vbv_maxrate=20000 / vbv_bufsize=15000 / crf_max=0.0 / nal_hrd=none / ip_ratio=1.30 / pb_ratio=1.20 / aq=1:0.90
Language : English

Audio #1
ID : 2
Format : AC-3
Format/Info : Audio Coding 3
Mode extension : CM (complete main)
Codec ID : A_AC3
Duration : 1h 51mn
Bit rate mode : Constant
Bit rate : 640 Kbps
Channel(s) : 6 channels
Channel positions : Front: L C R, Side: L R, LFE
Sampling rate : 48.0 KHz
Bit depth : 16 bits
Compression mode : Lossy
Stream size : 513 MiB (7%)
Title : AC3 5.1 @ 640 kbps - DUB, Blu-ray CEE
Language : Russian

Audio #2
ID : 3
Format : DTS
Format/Info : Digital Theater Systems
Codec ID : A_DTS
Duration : 1h 51mn
Bit rate mode : Constant
Bit rate : 1 510 Kbps
Channel(s) : 6 channels
Channel positions : Front: L C R, Side: L R, LFE
Sampling rate : 48.0 KHz
Bit depth : 24 bits
Compression mode : Lossy
Delay relative to video : 11ms
Stream size : 1.18 GiB (17%)
Title : DTS 5.1 @ 1536 kbps
Language : English

Audio #3
ID : 4
Format : AC-3
Format/Info : Audio Coding 3
Mode extension : CM (complete main)
Codec ID : A_AC3
Duration : 1h 51mn
Bit rate mode : Constant
Bit rate : 640 Kbps
Channel(s) : 6 channels
Channel positions : Front: L C R, Side: L R, LFE
Sampling rate : 48.0 KHz
Bit depth : 16 bits
Compression mode : Lossy
Stream size : 513 MiB (7%)
Title : AC3 5.1 @ 640 kbps - Descriptive
Language : English

Text #1
ID : 5
Format : UTF-8
Codec ID : S_TEXT/UTF8
Codec ID/Info : UTF-8 Plain Text
Title : Forced
Language : Russian

Text #2
ID : 6
Format : UTF-8
Codec ID : S_TEXT/UTF8
Codec ID/Info : UTF-8 Plain Text
Title : Blu-ray CEE
Language : Russian

Text #3
ID : 7
Format : UTF-8
Codec ID : S_TEXT/UTF8
Codec ID/Info : UTF-8 Plain Text
Language : English

Text #4
ID : 8
Format : UTF-8
Codec ID : S_TEXT/UTF8
Codec ID/Info : UTF-8 Plain Text
Title : SDH
Language : English

Text #5
ID : 9
Format : UTF-8
Codec ID : S_TEXT/UTF8
Codec ID/Info : UTF-8 Plain Text
Title : SDH-COLORED
Language : English

Menu
00:00:00.000 : en:Chapter 1
00:08:52.991 : en:Chapter 2
00:19:26.665 : en:Chapter 3
00:29:15.754 : en:Chapter 4
00:40:50.239 : en:Chapter 5
00:51:06.730 : en:Chapter 6
00:59:55.467 : en:Chapter 7
01:10:37.150 : en:Chapter 8
01:21:03.108 : en:Chapter 9
01:28:59.292 : en:Chapter 10
01:38:10.760 : en:Chapter 11
01:46:08.362 : en:Chapter 12
Свернуть

Скриншоты

Изображение

Изображение

Изображение
Свернуть
_________________
«you failed because you had the wrong dream...»
Не в сети
Профиль  
 Добавлено: 2013-10-30 16:25 (спустя 6 часов)
Пользователь забанен
Аватара пользователя
Стаж: 6 лет 10 месяцев
Возраст: 35
Сообщений: 161
Спасибок: 67
Лайков: 15
Наконэц то будем боятся.
_________________
Only Psyhedelic
Не в сети
Профиль  
 Добавлено: 2013-12-04 21:53 (спустя 1 месяц 5 дней)
Стаж: 6 лет 6 месяцев
Сообщений: 175
Лайков: 2
:a_g_a:
Не в сети
Профиль  
Начать новую темуОтветить на тему  [ Сообщений: 3 ] 
Вы не можете начинать темы
Вы не можете отвечать на сообщения
Вы не можете редактировать свои сообщения
Вы не можете удалять свои сообщения