Правила форума

  • В этом разделе создание новых тем Запрещено.
  • Для создания новых тем пользуйтесь Корневым разделом DVD и HD фильмы.
Начать новую темуОтветить на тему  [ 1 сообщение ] 
Торрент файл
Размер: 11.47 GB • Зарегистрирован: 4 года 5 месяцев • Статус: Проверено
Скачан: 33 раза • Желающих скачать: 0 • Поблагодарили: 7 раз
 Раздают: 0  |  0 KB/s  ]   Качают: 0  |  0 KB/s  ] 
 Полного источника не было 2 года 10 месяцев 
Сообщения
 Добавлено: 2012-07-05 11:42
Модератор
Аватара пользователя
Стаж: 6 лет 10 месяцев
Возраст: 33
Сообщений: 5908
Спасибок: 61265
Лайков: 3540
Изображение

Закон доблести / Act of Valor


Год выпуска: 2012
Страна: США
Слоган: «Последний легкий день был вчера»
Жанр: боевик, триллер, приключения, военный
Продолжительность: 01:50:16
Перевод: Профессиональный (полное дублирование) Лицензия
Режиссер: Майк МакКой, Скотт Во
Сценарий: Курт Джонстад
Продюсер: Скотт Во, Майк МакКой, Джейсон Кларк
Оператор: Шейн Хёрлбат
Композитор: Натан Ферст
В ролях: Александр Асефа, Кенни Калдерон, Андреа Кастро, Сэм Чеспедес, Энтони Короне, Джейсон Коттл
Бюджет: $12 000 000
Сборы в США: $70 012 847
Сборы в России: $242 615
Сборы в мире: $80 419 713
Описание: История о нелегких буднях элитной группы «морские котики», которым поручено вытащить из плена агентов ЦРУ. Выполняя задание, бойцы попутно уничтожают террористическую группу, в планы которой входила масштабная атака на США.
Изображение
MPAA: Изображение
Мировая премьера: 7 февраля 2012
Релиз на DVD: 12 июня 2012, «Парадиз Медиа»
Релиз на Blu-ray: 12 июня 2012, «Парадиз Медиа»
Раздача группы:Изображение
Качество: BDRip, 1080p
Формат: Matroska
Видео: AVC; 1920x800 (2.40:1); 12702 Kbps; 23,976 fps; 0,345 bit/pixel
Аудио №1: Russian; AC3; 384 Kbps; CBR; 6 ch
Аудио №2: DTS; 1509 Kbps; CBR; 6 ch; 24 bit
Оригинал
Субтитры №1: Russian
Субтитры №2:

"Знаете ли Вы, что..."
  • В фильме снимались настоящие бойцы SEAL (Морские котики).
  • Проект инициирован командованием Подразделения специальных операций ВМС США (Navy Special Warfare). Цели проекта: поддержать наборы в спецподразделение, выразить честь заслугам погибших в бою спецназовцев, сформировать положительное общественное мнение к такому понятию, как «Морской котик».
Свернуть
MediaInfo
General
Complete name : Zakon.doblesti.2012.x264.BDRip.1080p.mkv
Format : Matroska
File size : 11.5 GiB
Duration : 1h 50mn
Overall bit rate : 14.9 Mbps
Encoded date : UTC 2012-06-08 20:11:57
Writing application : mkvmerge v4.2.0 ('No Talking') built on Jul 28 2010 18:38:23
Writing library : libebml v1.0.0 + libmatroska v1.0.0

Video
ID : 1
Format : AVC
Format/Info : Advanced Video Codec
Format profile : High@L4.1
Format settings, CABAC : Yes
Format settings, ReFrames : 5 frames
Codec ID : V_MPEG4/ISO/AVC
Duration : 1h 50mn
Bit rate : 13.0 Mbps
Width : 1 920 pixels
Height : 800 pixels
Display aspect ratio : 2.40:1
Frame rate : 23.976 fps
Color space : YUV
Chroma subsampling : 4:2:0
Bit depth : 8 bits
Scan type : Progressive
Bits/(Pixel*Frame) : 0.353
Stream size : 9.78 GiB (85%)
Writing library : x264 core 124 r2197 69a0443
Encoding settings : cabac=1 / ref=5 / deblock=1:-3:-3 / analyse=0x3:0x133 / me=tesa / subme=11 / psy=1 / psy_rd=1.20:0.00 / mixed_ref=1 / me_range=24 / chroma_me=1 / trellis=2 / 8x8dct=1 / cqm=0 / deadzone=21,11 / fast_pskip=1 / chroma_qp_offset=-2 / threads=12 / sliced_threads=0 / nr=0 / decimate=1 / interlaced=0 / bluray_compat=0 / constrained_intra=0 / bframes=8 / b_pyramid=2 / b_adapt=2 / b_bias=0 / direct=3 / weightb=1 / open_gop=0 / weightp=2 / keyint=240 / keyint_min=23 / scenecut=40 / intra_refresh=0 / rc_lookahead=90 / rc=2pass / mbtree=1 / bitrate=13000 / ratetol=1.0 / qcomp=0.65 / qpmin=10 / qpmax=69 / qpstep=4 / cplxblur=20.0 / qblur=0.5 / ip_ratio=1.40 / aq=2:0.50
Language : English

Audio #1
ID : 2
Format : AC-3
Format/Info : Audio Coding 3
Mode extension : CM (complete main)
Codec ID : A_AC3
Duration : 1h 50mn
Bit rate mode : Constant
Bit rate : 384 Kbps
Channel(s) : 6 channels
Channel positions : Front: L C R, Side: L R, LFE
Sampling rate : 48.0 KHz
Bit depth : 16 bits
Compression mode : Lossy
Stream size : 303 MiB (3%)
Language : Russian

Audio #2
ID : 3
Format : DTS
Format/Info : Digital Theater Systems
Codec ID : A_DTS
Duration : 1h 50mn
Bit rate mode : Constant
Bit rate : 1 510 Kbps
Channel(s) : 6 channels
Channel positions : Front: L C R, Side: L R, LFE
Sampling rate : 48.0 KHz
Bit depth : 24 bits
Compression mode : Lossy
Delay relative to video : 11ms
Stream size : 1.16 GiB (10%)
Language : English

Text #1
ID : 4
Format : UTF-8
Codec ID : S_TEXT/UTF8
Codec ID/Info : UTF-8 Plain Text
Language : Russian

Text #2
ID : 5
Format : UTF-8
Codec ID : S_TEXT/UTF8
Codec ID/Info : UTF-8 Plain Text
Language : English

Menu
00:00:00.000 : en:00:00:00.000
00:04:13.712 : en:00:04:13.712
00:08:14.619 : en:00:08:14.619
00:11:40.199 : en:00:11:40.199
00:15:51.367 : en:00:15:51.367
00:20:26.934 : en:00:20:26.934
00:25:32.281 : en:00:25:32.281
00:30:10.058 : en:00:30:10.058
00:35:50.607 : en:00:35:50.607
00:39:21.150 : en:00:39:21.150
00:43:02.038 : en:00:43:02.038
00:48:31.200 : en:00:48:31.200
00:51:46.061 : en:00:51:46.061
00:54:54.791 : en:00:54:54.791
00:58:58.618 : en:00:58:58.618
01:02:49.057 : en:01:02:49.057
01:08:10.461 : en:01:08:10.461
01:11:54.560 : en:01:11:54.560
01:17:47.872 : en:01:17:47.872
01:21:51.156 : en:01:21:51.156
01:26:12.751 : en:01:26:12.751
01:32:46.352 : en:01:32:46.352
01:35:48.618 : en:01:35:48.618
01:41:55.109 : en:01:41:55.109

Свернуть

Скриншоты

Изображение
Изображение
Изображение
Изображение
Изображение
Изображение
Изображение
Свернуть
_________________
ИзображениеИзображение Изображение
Изображение
 tany1984 и di-ys1 нравится это.
Не в сети
Профиль  
Начать новую темуОтветить на тему  [ 1 сообщение ] 
Вы не можете начинать темы
Вы не можете отвечать на сообщения
Вы не можете редактировать свои сообщения
Вы не можете удалять свои сообщения