Правила форума

  • В этом разделе создание новых тем Запрещено.
  • Для создания новых тем пользуйтесь Корневым разделом DVD и HD фильмы.
Начать новую темуОтветить на тему  [ Сообщений: 4 ] 
Торрент файл
Размер: 4.29 GB • Зарегистрирован: 5 лет 6 месяцев • Статус: Проверено
Скачан: 168 раз • Желающих скачать: 0 • Поблагодарили: 25 раз
 Раздают: 0  |  0 KB/s  ]   Качают: 0  |  0 KB/s  ] 
 Полного источника не было 5 месяцев 10 дней 
Сообщения
 Добавлено: 2011-05-24 11:08
Аватара пользователя
Стаж: 9 лет
Возраст: 27
Сообщений: 1386
Спасибок: 16115
Лайков: 14
Изображение

Законопослушный гражданин / Law Abiding Citizen

«Как остановить убийцу, если он уже за решеткой?»

Год выпуска: 2009
Страна: Изображение США
Жанр: триллер, драма, криминал
Продолжительность: 01:58:06
Перевод: Профессиональный (полное дублирование)

Режиссер: Ф. Гэри Грей
Сценарий: Курт Уиммер
Продюсер: Джерард Батлер, Курт Уиммер, Лукас Фостер
Оператор: Джонатан Села
Композитор: Брайан Тайлер

В ролях: Джейми Фокс, Джерард Батлер, Колм Мини, Брюс МакГилл, Лесли Бибб, Майкл Ирби, Грегори Итцин, Реджина Холл, Кристиан Столте

Описание: Добропорядочный житель Филадельфии Клайд Шелтон теряет семью в результате бандитского нападения. Но когда преступники оказались в руках правосудия, выяснилось, что юридической Системе удобнее пойти на сделку с одним из бандитов, чтобы дать высшую меру другому.
Помощник окружного прокурора Ник Райс идет на эту сделку, вопреки протестам возмущенного Шелтона, свято верящего в безукоризненность Закона. Но его права были попраны… И тогда спустя годы безвестный мститель начинает творить собственную расправу над убийцами. Ник Райс достаточно быстро находит его. Это… Клайд Шелтон. Райсу кажется, что ему нетрудно добиться признания от раздавленного семейной трагедией Клайда.
Каково же изумление всех работников Системы, когда они обнаруживают, что даже помещенный в тюрьму, этот человек способен на самую жестокую и изощренную месть. Более того, они оказались совершенно бессильны перед гениальной игрой и смертоносными ударами изолированного в одиночке Шелтона! Законопослушный гражданин начал беспощадную войну против всех них. И дело вовсе не в мести…

Релиз: Изображение

Раздача: Изображение

Изображение

Доп. информация
Бюджет: $50 000 000
Сборы в мире: + $53 277 529 = $126 635 256
Сборы в США: $73 357 727
Сборы в России: $2 133 270
Премьера (мир): 23 сентября 2009
Премьера (РФ): 4 ноября 2009, «Top Film Distribution»
Релиз на DVD: 3 декабря 2009, «New Dream media», «Новый Диск»
Рейтинг R — Restricted. Подростки до 17 лет допускаются на фильм только в сопровождении одного из родителей
Изображение
Ограничение — до 17 лет требуется сопровождение родителя или взрослого опекуна (возраст может меняться в некоторых регионах). Данный рейтинг показывает, что оценочная комиссия заключила, что некоторый материал оценённого фильма предназначается для взрослых. Родители должны больше узнать о фильме прежде, чем взять на его просмотр детей. Рейтинг R также может быть назначен из-за используемого в фильме языка, темы, насилия, секса или изображения употребления наркотиков.
Свернуть
Свернуть
Знаете ли вы, что...
* Съёмки прошли в Филадельфии и её окрестностях, в том числе в нынешней городской администрации и в старой городской тюрьме Broadmeadows. Тюрьма была закрыта в 1998 году и с того времени используется главным образом в качестве складских помещений. Бывшая тюремная столовая была преобразована в современный полицейский участок с рядами столов и всей прочей обстановкой.
* Премьера фильма прошла на родине Джерарда Батлера в мультиплексе Cineworld в шотландском Глазго, который считается самым высоким кинотеатром в мире и одним из самых оживлённых во всей Великобритании.
* На одной из ранних стадий производства проекта место режиссёра картины отводилось Фрэнку Дарабонту, а одну из ролей должна была сыграть Кэтрин Зета-Джонс.
* Майкл Наттер, мэр Филадельфии, появляется в небольшом камео как человек, держащий библию, когда герой Джейми Фокса приносит присягу прокурора.
* Режиссёр фильма Ф. Гэри Грей появляется в камео полицейского детектива, который протягивает детективу Гарце пакет с доказательствами.
* Изначально планировалось что роль Шелтона сыграет Джейми Фокс, а роль Райса — Джерард Батлер. Но затем Батлеру захотелось сыграть роль злодея, и Фокс предложил поменяться ролями.
Свернуть
Примечание
Unrated Director's Cut версия! Отсутствуют 10 минут перевода!
Свернуть

Изображение

Качество: BDRip 1080p
Формат: MKV
Видео: 1920x800, 4913 Кбит/сек, 23,976 кадр/сек, AVC, x264, 2,40:1, 0.133 Бит/(Пиксели*Кадры)
Аудио: AC-3, 384 Кбит/сек, 6 канала(ов), 48,0 КГц


Скриншоты

Изображение

Изображение

Изображение
Свернуть
MediaInfo
Формат : Matroska
Размер файла : 4,29 Гбайт
Продолжительность : 1 ч. 58 м.
Общий поток : 5203 Кбит/сек
Название фильма : Rip by Tembr
Дата кодирования : UTC 2010-03-15 03:24:43
Программа кодирования : mkvmerge v3.2.0 ('Beginnings') built on Feb 12 2010 16:46:17
Библиотека кодирования : libebml v0.7.9 + libmatroska v0.8.1

Видео
Идентификатор : 1
Формат : AVC
Формат/Информация : Advanced Video Codec
Профиль формата : High@L4.1
Параметр CABAC формата : Да
Параметр ReFrames формата : 3 кадра
Параметры GOP формата : M=4, N=24
Идентификатор кодека : V_MPEG4/ISO/AVC
Продолжительность : 1 ч. 58 м.
Вид битрейта : Переменный
Битрейт : 4913 Кбит/сек
Максимальный битрейт : 17,5 Мбит/сек
Ширина : 1920 пикс.
Высота : 800 пикс.
Соотношение сторон : 2,40:1
Частота кадров : 23,976 кадр/сек
Цветовое пространство : YUV
Подвыборка цветности : 4:2:0
Битовая глубина : 8 бит
Тип развёртки : Прогрессивная
Бит/(Пиксели*Кадры) : 0.133
Размер потока : 3,89 Гбайт (91%)
Заголовок : Законопослушный гражданин.[NoLimits-Team.ru]
Библиотека кодирования : x264 core 112 r1867 22bfd31
Настройки программы : cabac=1 / ref=1 / deblock=1:0:0 / analyse=0x3:0x3 / me=dia / subme=1 / psy=1 / psy_rd=0.00:0.00 / mixed_ref=0 / me_range=16 / chroma_me=1 / trellis=0 / 8x8dct=1 / cqm=0 / deadzone=21,11 / fast_pskip=1 / chroma_qp_offset=0 / threads=3 / sliced_threads=0 / slices=4 / nr=0 / decimate=1 / interlaced=0 / constrained_intra=0 / bframes=3 / b_pyramid=1 / b_adapt=1 / b_bias=0 / direct=1 / weightb=1 / open_gop=0 / weightp=1 / keyint=24 / keyint_min=1 / scenecut=40 / intra_refresh=0 / rc_lookahead=0 / rc=abr / mbtree=0 / bitrate=4913 / ratetol=1.0 / qcomp=0.60 / qpmin=0 / qpmax=51 / qpstep=4 / vbv_maxrate=17500 / vbv_bufsize=14500 / nal_hrd=vbr / ip_ratio=1.10 / pb_ratio=1.10 / aq=1:1.00
Язык : English

Аудио
Идентификатор : 2
Формат : AC-3
Формат/Информация : Audio Coding 3
Расширение режима : CM (complete main)
Идентификатор кодека : A_AC3
Продолжительность : 1 ч. 58 м.
Вид битрейта : Постоянный
Битрейт : 384 Кбит/сек
Каналы : 6 каналов
Расположение каналов : Front: L C R, Side: L R, LFE
Частота : 48,0 КГц
Битовая глубина : 16 бит
Метод сжатия : С потерями
Размер потока : 324 Мбайт (7%)
Заголовок : Дублированное
Язык : Russian

Свернуть

Оформление раздачи:
Совунья


Последний раз редактировалось Gloom 2011-05-24 20:33, всего редактировалось 1 раз.
Не в сети
Профиль  
 Добавлено: 2011-05-24 13:52 (спустя 2 часа 43 минуты)
Аватара пользователя
Стаж: 8 лет 3 месяца
Возраст: 43
Сообщений: 3290
Спасибок: 21012
Лайков: 3
Gloom
Внимание: Для DVD и HD-разделов необходимы развернутые технические данные:
Для DVD: Отчет DVDInfo (под спойлером)
Для HD: Отчет BDInfo→ (после нажатия кнопки «scan bitrates» и окончания сканирования) или MediaInfo→ ( весь текст из режима view (вид) → text (текст).) (под спойлером)
Как все исправите, то сообщите пожалуйста в ЛС мне или любому модератору видео. Обязательно со ссылкой на релиз :)
Пи. Си.
наверно качество будет не очень :(
_________________
Изображение
Не в сети
Профиль  
 Добавлено: 2013-08-07 19:19 (спустя 2 года 2 месяца)
Стаж: 8 лет 8 месяцев
Сообщений: 19
Русский перевод пропадает иногда :(((((
Не в сети
Профиль  
 Добавлено: 2013-08-08 00:31 (спустя 5 часов)
Top-seeder
Аватара пользователя
Стаж: 8 лет 5 месяцев
Возраст: 30
Сообщений: 982
Спасибок: 860
Лайков: 5
wins2000
Вам в названии "Unrated Director's Cut" ни о чем не говорит? :hi_hi_hi:
Не в сети
Профиль  
Начать новую темуОтветить на тему  [ Сообщений: 4 ] 
Вы не можете начинать темы
Вы не можете отвечать на сообщения
Вы не можете редактировать свои сообщения
Вы не можете удалять свои сообщения