Правила форума

  • В этом разделе создание новых тем Запрещено.
  • Для создания новых тем пользуйтесь Корневым разделом DVD и HD фильмы.
Начать новую темуОтветить на тему  [ 1 сообщение ] 
Торрент файл
Размер: 19.8 GB • Зарегистрирован: 3 года 9 месяцев • Статус: Проверено
Скачан: 9 раз • Желающих скачать: 0 • Поблагодарили: 7 раз
 Раздают: 0  |  0 KB/s  ]   Качают: 0  |  0 KB/s  ] 
 Полного источника не было 1 год 10 месяцев 
Сообщения
 Добавлено: 2013-02-11 00:12
Руководитель релиз-группы
Аватара пользователя
Стаж: 7 лет 5 месяцев
Возраст: 31
Сообщений: 3407
Спасибок: 46729
Лайков: 5
Изображение

Заложница 2
Taken 2


Год выпуска: 2012
Страна: Франция
Слоган: «First they took his daughter. Now they're coming for him.»
Жанр: боевик, триллер, криминал
Продолжительность: 01:32:07
Перевод: Профессиональный (полное дублирование) [лицензия]
Режиссер: Оливье Мегатон
Сценарий: Люк Бессон, Роберт Марк Кэмен
Продюсер: Люк Бессон, Дилой Гюлюн, Мишель Мандавилль
Оператор: Ромейн Лакурбас
Композитор: Натэниел Мекали
В ролях: Лиам Нисон, Мэгги Грэйс, Фамке Янссен, Лиленд Орсер, Джон Грайз, Д.Б. Суини, Люк Граймс, Раде Шербеджия, Кеворк Маликян, Ален Фиглаж
Бюджет: $45 000 000
Сборы в США: $139 076 968
Сборы в России: $4 065 250
Сборы в мире: $365 697 866
Описание: Брайану Миллсу придется расхлебывать последствия своих действий. Спасая свою дочь, он убил главаря банды, у которого - сюрприз! - есть отец по имени Мурад. Мурад жаждет отмщения и описывается как человек, отдающий приказы, но сам никогда никому не подчиняющийся. Мурад берет в заложники Миллса с супругой, и тут уже Ким Миллс нужно будет спасать своих родителей.
Изображение
MPAA: Изображение
Мировая премьера: 7 сентября 2012
Релиз на DVD: 4 февраля 2013, «Новый Диск»
Релиз на Blu-ray: 4 февраля 2013, «Новый Диск»
Раздача группы: Изображение
Качество: BD-Remux, 1080p
Формат: MKV
Видео: MPEG-4 AVC, 25.9 Мбит/с, 1920x1080, 23.976 кадр/с
Аудио: DTS, 6 ch, 768 Kbps Russian
Аудио: Dolby AC3, 6 ch, 384 Kbps Ukrainian
Аудио: DTS-HD МА, 6 ch, 3953 Kbps English
Субтитры: русские, английские
mediainfo
Формат : Matroska
Версия формата : Version 2
Размер файла : 19,8 Гбайт
Продолжительность : 1 ч. 32 м.
Режим общего битрейта : Переменный
Общий поток : 30,8 Мбит/сек
Дата кодирования : UTC 2013-02-09 16:23:19
Программа кодирования : mkvmerge v5.8.0 ('No Sleep / Pillow') built on Sep 2 2012 15:37:04
Библиотека кодирования : libebml v1.2.3 + libmatroska v1.3.0

Видео
Идентификатор : 1
Формат : AVC
Формат/Информация : Advanced Video Codec
Профиль формата : High@L4.1
Параметр CABAC формата : Да
Параметр ReFrames формата : 4 кадра
Идентификатор кодека : V_MPEG4/ISO/AVC
Продолжительность : 1 ч. 32 м.
Вид битрейта : Переменный
Битрейт : 27,5 Мбит/сек
Максимальный битрейт : 30,5 Мбит/сек
Ширина : 1920 пикселей
Высота : 1080 пикселей
Соотношение сторон : 16:9
Частота кадров : 23,976 кадра/сек
Цветовое пространство : YUV
Субдискретизация насыщенности : 4:2:0
Битовая глубина : 8 бит
Тип развёртки : Прогрессивная
Бит/(Пиксели*Кадры) : 0.552
Размер потока : 17,7 Гбайт (89%)

Аудио #1
Идентификатор : 2
Формат : DTS
Формат/Информация : Digital Theater Systems
Идентификатор кодека : A_DTS
Продолжительность : 1 ч. 32 м.
Вид битрейта : Постоянный
Битрейт : 755 Кбит/сек
Каналы : 6 каналов
Расположение каналов : Front: L C R, Side: L R, LFE
Частота : 48,0 КГц
Битовая глубина : 24 бит
Метод сжатия : С потерями
Размер потока : 497 Мбайт (2%)
Заголовок : Dub, BD RUS
Язык : Russian

Аудио #2
Идентификатор : 3
Формат : AC-3
Формат/Информация : Audio Coding 3
Расширение режима : CM (complete main)
Идентификатор кодека : A_AC3
Продолжительность : 1 ч. 32 м.
Вид битрейта : Постоянный
Битрейт : 384 Кбит/сек
Каналы : 6 каналов
Расположение каналов : Front: L C R, Side: L R, LFE
Частота : 48,0 КГц
Битовая глубина : 16 бит
Метод сжатия : С потерями
Размер потока : 253 Мбайт (1%)
Заголовок : MVO, Omikron
Язык : Ukrainian

Аудио #3
Идентификатор : 4
Формат : DTS
Формат/Информация : Digital Theater Systems
Профиль формата : MA / Core
Идентификатор кодека : A_DTS
Продолжительность : 1 ч. 32 м.
Вид битрейта : Переменный
Битрейт : 1561 Кбит/сек / 1510 Кбит/сек
Каналы : 6 каналов
Расположение каналов : Front: L C R, Side: L R, LFE
Частота : 48,0 КГц
Битовая глубина : 24 бит
Метод сжатия : Без потерь / Lossy
Язык : English

Текст #1
Идентификатор : 5
Формат : UTF-8
Идентификатор кодека : S_TEXT/UTF8
Идентификатор кодека/Информация : UTF-8 Plain Text
Язык : Russian

Текст #2
Идентификатор : 6
Формат : UTF-8
Идентификатор кодека : S_TEXT/UTF8
Идентификатор кодека/Информация : UTF-8 Plain Text
Заголовок : Forced
Язык : English

Текст #3
Идентификатор : 7
Формат : UTF-8
Идентификатор кодека : S_TEXT/UTF8
Идентификатор кодека/Информация : UTF-8 Plain Text
Заголовок : SDH
Язык : English

Меню
00:00:00.000 : :Chapter 01
00:04:18.424 : :Chapter 02
00:07:24.694 : :Chapter 03
00:08:51.280 : :Chapter 04
00:12:45.389 : :Chapter 05
00:16:01.669 : :Chapter 06
00:19:41.179 : :Chapter 07
00:22:06.283 : :Chapter 08
00:25:10.926 : :Chapter 09
00:30:22.946 : :Chapter 10
00:34:48.169 : :Chapter 11
00:38:06.992 : :Chapter 12
00:41:31.322 : :Chapter 13
00:45:37.985 : :Chapter 14
00:50:35.991 : :Chapter 15
00:56:38.853 : :Chapter 16
01:00:21.617 : :Chapter 17
01:04:41.252 : :Chapter 18
01:07:06.939 : :Chapter 19
01:10:28.265 : :Chapter 20
01:15:44.831 : :Chapter 21
01:19:28.471 : :Chapter 22
01:23:06.648 : :Chapter 23
01:26:02.824 : :Chapter 24

Свернуть
"Знаете ли Вы, что..."
    ❖ Диего Бонета и Завьер Сэмюэл проходили прослушивание на роль, которая отошла Люку Граймсу.
    ❖ Когда Ким использует первую гранату, Брайан насчитывает около 4-х секунд и говорит, что это было на расстоянии в 4,5 км. Скорость звука составляет около 0,34 км/с, так что взрыв был на расстоянии чуть более 1 км. Чтобы пройти путь в 4,5 км звуку понадобилось бы около 13 секунд.
    ❖ Когда Брайан поручает Ким рисовать круги на карте, числа, которые он произносит, являются радиусами, а не диаметрами. Если бы она нарисовала окружности, так как он описал, то они были бы гораздо меньше по диаметру, чем было задумано.
    Когда Брайан и Ким плывут на пароме, рука Брайана то лежит у нее на плечах, то резко возвращается в исходное положение.
    ❖ Во время сцены автомобильной погони, заднее окно такси простреливают. В нескольких кадрах после этого окно то целое, то снова разбито.
    ❖ Несмотря на то, что такси врезается в машины, стены и т. д., оно остается в практически идеальном состоянии на протяжении всей сцены погони.
    ❖ Посольство США в Турции находится в Анкаре. В Стамбуле есть только консульство США.
    ❖ Безопасность консульства США в Стамбуле обеспечивается местной охраной, а не американской армией. Помимо этого всегда есть барьеры или железобетонные конструкции, которые не позволят врезаться в пропускной пункт так, как это показано в фильме.
    ❖ В фильме Стамбул изображается очень неразвитым городом, тогда как в реальной жизни он считается одним из самых больших и самых важных городов Европы. Кроме того, почти все женские персонажи носят паранджу, когда на самом деле это личный выбор каждого, и почти все женщины в Стамбуле не носят ее.
Свернуть
Скриншоты

Изображение

Изображение

Изображение

Изображение
Свернуть
Не в сети
Профиль  
Начать новую темуОтветить на тему  [ 1 сообщение ] 
Вы не можете начинать темы
Вы не можете отвечать на сообщения
Вы не можете редактировать свои сообщения
Вы не можете удалять свои сообщения