Правила форума

  • В этом разделе создание новых тем Запрещено.
  • Для создания новых тем пользуйтесь Корневым разделом DVD и HD фильмы.
Начать новую темуОтветить на тему  [ 1 сообщение ] 
Торрент файл
Размер: 6.38 GB • Зарегистрирован: 4 года • Статус: Проверено
Скачан: 99 раз • Желающих скачать: 0 • Поблагодарили: 23 раза
 Раздают: 0  |  0 KB/s  ]   Качают: 0  |  0 KB/s  ] 
 Полного источника не было 1 месяц 9 дней 
Сообщения
 Добавлено: 2012-11-09 15:10
Аватара пользователя
Стаж: 4 года 2 месяца
Сообщений: 69
Спасибок: 218
Изображение

Заложница / Taken


Год выпуска: 2008
Страна: США, Франция, Великобритания
Слоган: «Они забрали его дочь. Он заберёт их жизни.»
Жанр: боевик, триллер, драма, криминал
Продолжительность: 01:33:24
Перевод: Профессиональный (полное дублирование)
Режиссер: Пьер Морель
Сценарий: Люк Бессон, Роберт Марк Кэмен
Продюсер: Дидье Хорау, Франк Лебретон, Мишель Мандавилль
Оператор: Мишель Абрамович
Композитор: Натэниел Мекали
Бюджет: $25 000 000
Сборы в США: $145 000 989
Сборы в России: $856 600
Сборы в мире: $226 830 568
Описание: Бывший секретный агент, а ныне одинокий неудачник, Брайан вынужден уступить напору экс-жены и дать согласие на поездку семнадцатилетней дочери в Европу на каникулы. Наивную девочку, а так же её подругу похищают албанские бандиты и собираются продать в рабство арабам. Взволнованный отец тут же едет во Францию, чтобы в одиночку спасти дочь...
Изображение
MPAA: Изображение
Мировая премьера: 27 февраля 2008
Релиз на DVD: 16 октября 2008, «Двадцатый Век Фокс СНГ»
Релиз на Blu-ray: 26 марта 2009, «Двадцатый Век Фокс СНГ»

Качество: BDRip 720p
Контейнер: MKV
Видео: AVC, 1280x546, 5983 kbps, 23.976 fps
Аудио #1: DTS 5.1, 48 kHz, 768 kbps /Русский, Дубляж/
Аудио #2: DTS 5.1, 48 kHz, 1536 kbps /Русский, Многоголосный закадровый (Кравец)/
Аудио #3: DTS 5.1, 48 kHz, 1536 kbps /Английский/
Аудио #4: AC3 5.1, 48 kHz, 448 kbps /Русский, Одноголосный (Ю. Сербин)/ (отдельным файлом в раздаче рипа 1080)
Аудио #5: DTS 5.1, 48 kHz, 1536 kbps /Русский, Одноголосный (А. Гаврилов)/ (отдельным файлом в раздаче рипа 1080)
Cубтитры #1: русские (SRT, Форсированные)
Cубтитры #2: русские (SRT, EUR BD)
Cубтитры #3: английские (SRT, Форсированные)
Cубтитры #4: английские (SRT, SDH)
Главы: 24 штуки, подписанные
"Знаете ли Вы, что..."
  • Оригинальное название фильма — «Taken»(англ.).В русском прокате фильм имеет название «Заложница», однако слово «taken» имеет несколько другое значение. Заложник — человек, которого берут под стражу с целью выкупа или для гарантии выполнения каких-либо требований. Однако по сюжету Ким была похищена исключительно с целью продажи ее в сексуальное рабство, поэтому с точки зрения точности перевода более подходящим было бы название «Похищенная».
  • В некоторых странах (например, в Германии и в Турции) после локализации фильм получил название «96 часов».
  • Лиам Нисон, которому в момент начала работы над фильмом было 54 года, во время подготовки к съемкам учился в Париже элементам паркура.
  • В фильме Ким (дочь Брайна) младше Аманды на 2 года. В действительности же Мэгги Грэйс (Ким) старше Кэти Кэссиди (Аманда) на 2 года.
Свернуть
MediaInfo

General
Complete name : Taken.2008.720p.BDRip.x264-EbP.mkv
Format : Matroska
File size : 6.38 GiB
Duration : 1h 33mn
Overall bit rate : 9 770 Kbps
Movie name : Taken (2008)
Encoded date : UTC 2010-09-08 13:57:34
Writing application : mkvmerge v4.3.0 ('Escape from the Island') built on Sep 5 2010 10:30:51
Writing library : libebml v1.0.0 + libmatroska v1.0.0

Video
ID : 1
Format : AVC
Format/Info : Advanced Video Codec
Format profile : High@L4.1
Format settings, CABAC : Yes
Format settings, ReFrames : 11 frames
Muxing mode : Container profile=Unknown@4.1
Codec ID : V_MPEG4/ISO/AVC
Duration : 1h 33mn
Bit rate : 5 983 Kbps
Width : 1 280 pixels
Height : 546 pixels
Display aspect ratio : 2.35:1
Frame rate : 23.976 fps
Color space : YUV
Chroma subsampling : 4:2:0
Bit depth : 8 bits
Scan type : Progressive
Bits/(Pixel*Frame) : 0.357
Stream size : 3.79 GiB (59%)
Title : AVC, 1280x546, 5983 kbps
Writing library : x264 core 104 r1683 62997d6
Encoding settings : cabac=1 / ref=11 / deblock=1:-3:-3 / analyse=0x3:0x113 / me=tesa / subme=10 / psy=1 / psy_rd=1.00:0.00 / mixed_ref=1 / me_range=16 / chroma_me=1 / trellis=2 / 8x8dct=1 / cqm=0 / deadzone=21,11 / fast_pskip=0 / chroma_qp_offset=-2 / threads=12 / sliced_threads=0 / nr=0 / decimate=0 / interlaced=0 / constrained_intra=0 / bframes=8 / b_pyramid=2 / b_adapt=2 / b_bias=0 / direct=3 / weightb=1 / open_gop=1 / weightp=2 / keyint=250 / keyint_min=23 / scenecut=40 / intra_refresh=0 / rc=2pass / mbtree=0 / bitrate=5983 / ratetol=1.0 / qcomp=0.60 / qpmin=10 / qpmax=51 / qpstep=4 / cplxblur=20.0 / qblur=0.5 / ip_ratio=1.40 / pb_ratio=1.30 / aq=1:0.80
Language : English

Audio #1
ID : 2
Format : DTS
Format/Info : Digital Theater Systems
Codec ID : A_DTS
Duration : 1h 33mn
Bit rate mode : Constant
Bit rate : 755 Kbps
Channel(s) : 6 channels
Channel positions : Front: L C R, Side: L R, LFE
Sampling rate : 48.0 KHz
Bit depth : 24 bits
Stream size : 504 MiB (8%)
Title : DTS 5.1 768 kbps: Дубляж
Language : Russian

Audio #2
ID : 3
Format : DTS
Format/Info : Digital Theater Systems
Codec ID : A_DTS
Duration : 1h 33mn
Bit rate mode : Constant
Bit rate : 1 510 Kbps
Channel(s) : 6 channels
Channel positions : Front: L C R, Side: L R, LFE
Sampling rate : 48.0 KHz
Bit depth : 24 bits
Stream size : 1 009 MiB (15%)
Title : DTS 5.1 1536 kbps: Многоголосный закадровый (Кравец)
Language : Russian

Audio #3
ID : 4
Format : DTS
Format/Info : Digital Theater Systems
Codec ID : A_DTS
Duration : 1h 33mn
Bit rate mode : Constant
Bit rate : 1 510 Kbps
Channel(s) : 6 channels
Channel positions : Front: L C R, Side: L R, LFE
Sampling rate : 48.0 KHz
Bit depth : 24 bits
Stream size : 1 009 MiB (15%)
Title : DTS 5.1 1536 kbps
Language : English

Text #1
ID : 5
Format : UTF-8
Codec ID : S_TEXT/UTF8
Codec ID/Info : UTF-8 Plain Text
Title : Форсированные
Language : Russian

Text #2
ID : 6
Format : UTF-8
Codec ID : S_TEXT/UTF8
Codec ID/Info : UTF-8 Plain Text
Title : Полные
Language : Russian

Text #3
ID : 7
Format : UTF-8
Codec ID : S_TEXT/UTF8
Codec ID/Info : UTF-8 Plain Text
Title : Форсированные
Language : English

Text #4
ID : 8
Format : UTF-8
Codec ID : S_TEXT/UTF8
Codec ID/Info : UTF-8 Plain Text
Title : SDH
Language : English

Menu
00:00:00.000 : en:Her Real Father
00:04:43.950 : en:Red Meat, Red Wine
00:07:56.017 : en:The Diva
00:12:52.605 : en:Just Sign the Paper
00:16:49.217 : en:Rules and Conditions
00:20:24.306 : en:Ah, Paris
00:24:28.967 : en:Nightmare!
00:29:11.124 : en:96-Hour Window
00:32:26.278 : en:Searching the Apartment
00:35:53.318 : en:Stalking the Stalker
00:38:55.250 : en:Try Not to Make a Mess
00:41:34.283 : en:Porte de Clichy
00:45:47.828 : en:Makeshift Brothel
00:51:42.725 : en:Thanks, But Not Thanks
00:56:01.441 : en:Paradise
00:57:37.579 : en:Zeroing In
01:03:57.876 : en:Sold
01:06:56.763 : en:What a Pleasant Surprise
01:10:19.841 : en:Saving the Best For Last
01:15:08.671 : en:All Sales Are Final
01:18:22.656 : en:Racing the Boat
01:21:09.323 : en:Last Man Standing
01:26:02.949 : en:Welcome Home
01:28:04.654 : en:End Titles
Свернуть
Скриншоты

Изображение
Изображение
Изображение
Изображение

Свернуть
Не в сети
Профиль  
Начать новую темуОтветить на тему  [ 1 сообщение ] 
Вы не можете начинать темы
Вы не можете отвечать на сообщения
Вы не можете редактировать свои сообщения
Вы не можете удалять свои сообщения