Правила форума

  • В этом разделе создание новых тем Запрещено.
  • Для создания новых тем пользуйтесь Корневым разделом DVD и HD фильмы.
Начать новую темуОтветить на тему  [ Сообщений: 4 ] 
Торрент файл
Размер: 3.38 GB • Зарегистрирован: 2 года 6 месяцев • Статус: Проверено
Скачан: 34 раза • Желающих скачать: 0 • Поблагодарили: 16 раз
 Раздают: 0  |  0 KB/s  ]   Качают: 0  |  0 KB/s  ] 
 Полного источника не было 2 дня 22 часа 
Сообщения
 Добавлено: 2014-05-20 14:23
Книголюб
Аватара пользователя
Стаж: 7 лет 2 месяца
Сообщений: 2823
Спасибок: 48823
Лайков: 73
Замороженные солдаты
Ice Soldiers

Изображение


Год выпуска: 2013
Страна: Канада (Bunk 11 Pictures, TAJJ Media, Hideaway Pictures)
Жанр: фантастика, боевик
Продолжительность: 01:35:21
Перевод: Профессиональный (многоголосый закадровый)[лицензия]

Режиссёр: Стурла Гуннарссон
В ролях: Доминик Пёрселл, Адам Бич, Майкл Айронсайд, Гэбриел Хоган, Бенц Антуан, Рауль Банеджа, Нику Бранзеа, Грег Стивен Браун
Описание: Ученый в снегах Канады обнаруживает три тела русских военных, с генетическими изменениями. Он приводит их в чувство и зря — он разморозил смертельную опасность для общества.[
Рейтинг MPAA: Рейтинг R (Подростки до 17 лет допускаются на фильм только в сопровождении одного из родителей)
Мировая премьера: 5 декабря 2013
Изображение 4.167 109

Качество: BDRip 720p
Формат: MKV
Видео кодек: H.264
Аудио кодек: AC3 (Dolby Digital)
Видео: 1280x534 (163:68) 23.976fps 4 050 Kbps
Аудио #1: 48000Hz 6ch 384kbps
MediaInfo
General
Unique ID : 207365422322521429511386223998467972359 (0x9C0120AC3CF48E078296016F54261D07)
Complete name : K:\Torrent\Zamorozhennyie Soldaty.mkv
Format : Matroska
Format version : Version 4 / Version 2
File size : 3.38 GiB
Duration : 1h 35mn
Overall bit rate : 5 073 Kbps
Movie name : HELLYWOOD - rip by potroks
Encoded date : UTC 2014-05-19 09:39:44
Writing application : mkvmerge v5.9.0 ('On The Loose') built on Dec 15 2012 16:39:58
Writing library : libebml v1.3.0 + libmatroska v1.4.0

Video
ID : 1
Format : AVC
Format/Info : Advanced Video Codec
Format profile : High@L4.1
Format settings, CABAC : Yes
Format settings, ReFrames : 8 frames
Codec ID : V_MPEG4/ISO/AVC
Duration : 1h 35mn
Bit rate : 4 050 Kbps
Width : 1 280 pixels
Height : 534 pixels
Display aspect ratio : 2.40:1
Frame rate mode : Constant
Frame rate : 23.976 fps
Color space : YUV
Chroma subsampling : 4:2:0
Bit depth : 8 bits
Scan type : Progressive
Bits/(Pixel*Frame) : 0.247
Stream size : 2.63 GiB (78%)
Title : Ice Soldiers
Writing library : x264 core 130 r2273 b3065e6
Encoding settings : cabac=1 / ref=8 / deblock=1:-2:-2 / analyse=0x3:0x133 / me=umh / subme=11 / psy=1 / psy_rd=1.05:0.00 / mixed_ref=1 / me_range=32 / chroma_me=1 / trellis=2 / 8x8dct=1 / cqm=0 / deadzone=21,11 / fast_pskip=0 / chroma_qp_offset=-2 / threads=6 / lookahead_threads=1 / sliced_threads=0 / nr=0 / decimate=0 / interlaced=0 / bluray_compat=0 / constrained_intra=0 / bframes=10 / b_pyramid=2 / b_adapt=2 / b_bias=0 / direct=3 / weightb=1 / open_gop=0 / weightp=2 / keyint=250 / keyint_min=23 / scenecut=40 / intra_refresh=0 / rc_lookahead=60 / rc=2pass / mbtree=0 / bitrate=4050 / ratetol=1.0 / qcomp=0.70 / qpmin=0 / qpmax=69 / qpstep=4 / cplxblur=20.0 / qblur=0.5 / vbv_maxrate=50000 / vbv_bufsize=62500 / nal_hrd=none / ip_ratio=1.35 / pb_ratio=1.25 / aq=1:0.70
Language : English
Default : Yes
Forced : No

Audio #1
ID : 2
Format : AC-3
Format/Info : Audio Coding 3
Mode extension : CM (complete main)
Format settings, Endianness : Big
Codec ID : A_AC3
Duration : 1h 35mn
Bit rate mode : Constant
Bit rate : 384 Kbps
Channel(s) : 6 channels
Channel positions : Front: L C R, Side: L R, LFE
Sampling rate : 48.0 KHz
Bit depth : 16 bits
Compression mode : Lossy
Stream size : 262 MiB (8%)
Title : MVO | DD 5.1 @ 384 kbps - R5
Language : Russian
Default : Yes
Forced : Yes

Audio #2
ID : 3
Format : AC-3
Format/Info : Audio Coding 3
Mode extension : CM (complete main)
Format settings, Endianness : Big
Codec ID : A_AC3
Duration : 1h 35mn
Bit rate mode : Constant
Bit rate : 640 Kbps
Channel(s) : 6 channels
Channel positions : Front: L C R, Side: L R, LFE
Sampling rate : 48.0 KHz
Bit depth : 16 bits
Compression mode : Lossy
Stream size : 437 MiB (13%)
Title : Original | DD 5.1 @ 640 kbps
Language : English
Default : No
Forced : No

Text #1
ID : 4
Format : UTF-8
Codec ID : S_TEXT/UTF8
Codec ID/Info : UTF-8 Plain Text
Title : Janetta
Language : Russian
Default : No
Forced : No

Text #2
ID : 5
Format : UTF-8
Codec ID : S_TEXT/UTF8
Codec ID/Info : UTF-8 Plain Text
Title : kon201
Language : Russian
Default : No
Forced : No

Text #3
ID : 6
Format : UTF-8
Codec ID : S_TEXT/UTF8
Codec ID/Info : UTF-8 Plain Text
Language : English
Default : No
Forced : No

Text #4
ID : 7
Format : UTF-8
Codec ID : S_TEXT/UTF8
Codec ID/Info : UTF-8 Plain Text
Title : SDH
Language : English
Default : No
Forced : No

Menu
00:00:00.000 : en:00:00:00.000
00:05:13.063 : en:00:05:13.063
00:11:34.360 : en:00:11:34.360
00:17:37.682 : en:00:17:37.682
00:22:23.968 : en:00:22:23.968
00:28:18.447 : en:00:28:18.447
00:32:59.811 : en:00:32:59.811
00:37:26.828 : en:00:37:26.828
00:43:40.827 : en:00:43:40.827
00:51:37.303 : en:00:51:37.303
00:56:01.400 : en:00:56:01.400
01:00:32.087 : en:01:00:32.087
01:06:59.849 : en:01:06:59.849
01:12:31.264 : en:01:12:31.264
01:17:50.583 : en:01:17:50.583
01:22:04.128 : en:01:22:04.128


Свернуть

Скриншоты
Изображение
Изображение
Изображение
Свернуть
Не в сети
Профиль  
 Добавлено: 2014-05-20 17:19 (спустя 2 часа 56 минут)
Стаж: 5 лет
Сообщений: 55
Лайков: 5
Ну вот опять русские во всем виноваты! :-D
Не в сети
Профиль  
 Добавлено: 2014-05-20 19:49 (спустя 2 часа 29 минут)
Стаж: 5 лет 10 месяцев
Сообщений: 54
Лайков: 2
смотреть стоит ? или фильм аля тв3 ?
Не в сети
Профиль  
 Добавлено: 2014-05-20 19:49 (спустя 54 секунды)
Аватара пользователя
Стаж: 8 лет 6 месяцев
Сообщений: 471
Спасибок: 105
Лайков: 17
(Подростки до 17 лет допускаются на фильм только в сопровождении одного из родителей)
Интересно что на обложке возрастной рейтинг 15. А в сопровождении обоих родителей не пустят значит...
Не в сети
Профиль  
Начать новую темуОтветить на тему  [ Сообщений: 4 ] 
Вы не можете начинать темы
Вы не можете отвечать на сообщения
Вы не можете редактировать свои сообщения
Вы не можете удалять свои сообщения