Правила форума

  • В этом разделе создание новых тем Запрещено.
  • Для создания новых тем пользуйтесь Корневым разделом DVD и HD фильмы.
Начать новую темуОтветить на тему  [ 1 сообщение ] 
Торрент файл
Размер: 9.3 GB • Зарегистрирован: 3 года 8 месяцев • Статус: Проверено
Скачан: 55 раз • Желающих скачать: 0 • Поблагодарили: 17 раз
 Раздают: 0  |  0 KB/s  ]   Качают: 0  |  0 KB/s  ] 
 Полного источника не было 2 года 
Сообщения
 Добавлено: 2013-03-25 17:13
Аватара пользователя
Стаж: 9 лет 1 месяц
Сообщений: 8087
Спасибок: 122317
Лайков: 1195
Замуж на 2 дня / Un plan parfait

Изображение


Год выпуска: 2012
Страна: Изображение Франция
Жанр: комедия, приключения
Продолжительность: 01:44:51
Перевод: Профессиональный (полное дублирование) [Лицензия]


Режиссёр: Паскаль Шомель
Сценарист: Лорен Зэйтун, Йохан Кромб, Беатрис Фурнера
Продюсер: Николя Дюваль-Адассовски, Лорен Зэйтун, Ян Зеноу
Оператор: Глинн Спекарт
Композитор: Клаус Баделт

В ролях: Дайан Крюгер, Дани Бун, Алис Поль, Робер Планьоль, Джонатан Коэн, Бернадетт Ле Саше, Этьен Шико, Лорэ Кэлами, Мэлонн Левана, Оливье Клавери, Жан-Ив Шило, Мюриэль Солвэ, Амели Денарие, Эмелин Баяр, Жан-Поль Беццина, Дэмиен Боннар, Нэнси Тейт, Каролин Гонсе, Габриэлль Атже, Лан Хоанг Ксюан, Жан-Шарль Делом, Наталья Колдашова, Олег Мокш

Описание: Изабель мечтает о свадьбе. Но на её семье лежит проклятие. Все первые браки неминуемо заканчиваются разводами. Поэтому, когда ее парень делает ей предложение, Изабель решает перехитрить судьбу. Она отыскивает первого попавшегося лузера, влюбляет его в себя и: вместо того, чтобы развестись, случайно влюбляется сама.

Изображение Изображение

Раздача группы: Изображение

Качество: BDRip (1080p)
Формат: Matroska
Видео: MPEG-4 AVC, 11.5 Мбит/с, 1920x816
Аудио №1: Русский (AC3, 48,0 КГц, 6 ch, 448 Кбит/c)
Аудио №2: Русский (DTS, 48,0 КГц, 6 ch, 768 Кбит/c)

MediaInfo
Общее
Уникальный идентификатор : 233193488980901670479556094936169078329 (0xAF6F6EACF227F3FEB683638C8B9C5E39)
Полное имя : C:\Фильмы\Zamuz2dnya.2012.1080p.R.G.Daredevil.mkv
Формат : Matroska
Версия формата : Version 2
Размер файла : 9,30 Гбайт
Продолжительность : 1 ч. 44 м.
Общий поток : 12,7 Мбит/сек
Дата кодирования : UTC 2013-03-25 12:58:45
Программа кодирования : mkvmerge v5.7.0 ('The Whirlwind') built on Jul 29 2012 15:12:35
Библиотека кодирования : libebml v1.2.3 + libmatroska v1.3.0

Видео
Идентификатор : 1
Формат : AVC
Формат/Информация : Advanced Video Codec
Профиль формата : High@L4.1
Параметр CABAC формата : Да
Параметр ReFrames формата : 4 кадра
Идентификатор кодека : V_MPEG4/ISO/AVC
Продолжительность : 1 ч. 44 м.
Битрейт : 11,5 Мбит/сек
Ширина : 1920 пикселей
Высота : 816 пикселей
Соотношение сторон : 2,35:1
Режим частоты кадров : Постоянный
Частота кадров : 24,000 кадра/сек
Цветовое пространство : YUV
Субдискретизация насыщенности : 4:2:0
Битовая глубина : 8 бит
Тип развёртки : Прогрессивная
Бит/(Пиксели*Кадры) : 0.306
Размер потока : 8,24 Гбайт (89%)
Библиотека кодирования : x264 core 130 r2273 b3065e6
Настройки программы : cabac=1 / ref=4 / deblock=1:-3:-3 / analyse=0x3:0x113 / me=umh / subme=10 / psy=1 / psy_rd=1.00:0.00 / mixed_ref=1 / me_range=32 / chroma_me=1 / trellis=2 / 8x8dct=1 / cqm=0 / deadzone=21,11 / fast_pskip=1 / chroma_qp_offset=-2 / threads=6 / lookahead_threads=1 / sliced_threads=0 / nr=0 / decimate=1 / interlaced=0 / bluray_compat=0 / constrained_intra=0 / bframes=6 / b_pyramid=2 / b_adapt=2 / b_bias=0 / direct=2 / weightb=0 / open_gop=0 / weightp=2 / keyint=240 / keyint_min=24 / scenecut=40 / intra_refresh=0 / rc_lookahead=40 / rc=2pass / mbtree=1 / bitrate=11500 / ratetol=1.0 / qcomp=0.60 / qpmin=0 / qpmax=69 / qpstep=4 / cplxblur=20.0 / qblur=0.5 / ip_ratio=1.40 / aq=1:1.00 / zones=149959,150998,q=40
Язык : English
Default : Да
Forced : Нет

Аудио #1
Идентификатор : 2
Формат : AC-3
Формат/Информация : Audio Coding 3
Расширение режима : CM (complete main)
Параметр Endianness формата : Big
Идентификатор кодека : A_AC3
Продолжительность : 1 ч. 44 м.
Вид битрейта : Постоянный
Битрейт : 448 Кбит/сек
Каналы : 6 каналов
Расположение каналов : Front: L C R, Side: L R, LFE
Частота : 48,0 КГц
Битовая глубина : 16 бит
Метод сжатия : С потерями
Размер потока : 336 Мбайт (4%)
Заголовок : Дубляж
Язык : Russian
Default : Да
Forced : Да

Аудио #2
Идентификатор : 3
Формат : DTS
Формат/Информация : Digital Theater Systems
Режим : 16
Параметр Endianness формата : Big
Идентификатор кодека : A_DTS
Продолжительность : 1 ч. 44 м.
Вид битрейта : Постоянный
Битрейт : 755 Кбит/сек
Каналы : 6 каналов
Расположение каналов : Front: L C R, Side: L R, LFE
Частота : 48,0 КГц
Битовая глубина : 24 бит
Метод сжатия : С потерями
Размер потока : 566 Мбайт (6%)
Язык : Russian
Default : Нет
Forced : Нет

Меню
00:00:00.000 : en:en:00:00:00.000
00:00:24.208 : en:en:00:00:24.208
00:09:40.666 : en:en:00:09:40.666
00:22:34.666 : en:en:00:22:34.666
00:32:16.041 : en:en:00:32:16.041
00:49:55.583 : en:en:00:49:55.583
01:02:38.291 : en:en:01:02:38.291
01:16:53.625 : en:en:01:16:53.625
01:30:07.208 : en:en:01:30:07.208
Свернуть
Знаете ли вы, что...
Съёмки картины проходили с 23 августа по 19 ноября 2011 года на территории трёх стран — Бельгии, России и Кении.

Африканские сцены по первоначальному плану должны были сниматься в Танзании. Для режиссёра уже начали присматривать подходящие места для съёмок, однако предпочтение всё же было отдано другой африканской стране. Одним из определяющих факторов было то, что в Кении уже имелась необходимая инфраструктура, ранее использованная при съёмках киноленты «Преданный садовник» (2005).

Для сцены русского танца актрисе Дайане Крюгер пришлось изучить достаточно комплексную хореографию и затем репетировать движения по два часа в день, когда она была на отдыхе в Соединённых Штатах.

Свернуть
Скриншоты
Изображение
Изображение
Изображение
Изображение
Свернуть
В сети
Профиль  
Начать новую темуОтветить на тему  [ 1 сообщение ] 
Вы не можете начинать темы
Вы не можете отвечать на сообщения
Вы не можете редактировать свои сообщения
Вы не можете удалять свои сообщения