Правила форума

  • В этом разделе создание новых тем Запрещено.
  • Для создания новых тем пользуйтесь Корневым разделом DVD и HD фильмы.
Начать новую темуОтветить на тему  [ Сообщений: 4 ] 
Торрент файл
Размер: 7.94 GB • Зарегистрирован: 5 лет 5 месяцев • Статус: Проверено
Скачан: 32 раза • Желающих скачать: 0 • Поблагодарили: 8 раз
 Раздают: 0  |  0 KB/s  ]   Качают: 0  |  0 KB/s  ] 
 Полного источника не было 5 месяцев 24 дня 
Сообщения
 Добавлено: 2011-06-15 10:43
Top-releaser
Аватара пользователя
Стаж: 6 лет 7 месяцев
Сообщений: 2078
Спасибок: 3230
Лайков: 9
Западня / Entrapment

Изображение

Год выпуска: 1999
Страна: США, Великобритания, Германия
Жанр: Приключения
Продолжительность: 01:52:56
Перевод: Профессиональный (полное дублирование)
Режиссёр: Джон Эмиел
В ролях: Шон Коннери, Кэтрин Зета-Джонс, Винг Рэймс, Уилл Пэттон, Мори Чэйкин, Кевин МакНелли и др.
Описание: Роберт «Мак» Мак-Дугал (Шон Коннери) пользуется в определенных кругах репутацией величайшего вора, специализирующегося на произведениях искусства. Поэтому, когда в Нью-Йорке становится известно о краже бесценной картины Рембрандта, подозрение сразу падает на Мака. Страховой дознаватель Вирджиния «Джин» Бейкер (Кэтрин Зета-Джонс) убеждает своего босса, что именно она может заманить опытного вора в западню. На кон поставлены 24 миллиона долларов.
Волевая и находчивая Джин разрабатывает план поимки Мака, но противник оказывается проворнее и сильнее, чем она ожидала. Их противоречивые отношения - между настороженностью и симпатией - перерастают в необычное партнерство. Перебираясь с места на место - из Лондона в Шотландию и затем в столицу Малайзии Куала-Лумпур, партнеры-враги разрабатывают дерзкий план грандиозной кражи, приуроченной к вступлению человечества в новое тысячелетие.

Качество: BDRip, 1080p
Формат: MKV
Видео кодек: H.264
Аудио кодек: AC3, DTS
Видео: 1920 x 816, 23.976 кадр/сек, 8 429 Кбит/сек
Аудио #1: Russian AC3 5.1 @ 448 kbps
Аудио #2: English DTS 5.1 @ 768 kbps
Субтитры: Английские
MediaInfo
General
Unique ID : 173164316632015853898020055602284937393 (0x82463BF91FFD4FED91B13C9EF0DB40B1)
Complete name : K:\Западня\Entrapment.1999.BDRip.1080p.x264.Rus.mkv
Format : Matroska
File size : 7.94 GiB
Duration : 1h 53mn
Overall bit rate : 10.1 Mbps
Encoded date : UTC 2007-10-15 16:39:20
Writing application : mkvmerge v2.1.0 ('Another Place To Fall') built on Aug 19 2007 13:40:07
Writing library : libebml v0.7.7 + libmatroska v0.8.1

Video
ID : 1
Format : AVC
Format/Info : Advanced Video Codec
Format profile : High@L5.1
Format settings, CABAC : Yes
Format settings, ReFrames : 8 frames
Codec ID : V_MPEG4/ISO/AVC
Duration : 1h 53mn
Bit rate : 8 853 Kbps
Width : 1 920 pixels
Height : 816 pixels
Display aspect ratio : 2.35:1
Frame rate : 23.976 fps
Color space : YUV
Chroma subsampling : 4:2:0
Bit depth : 8 bits
Scan type : Progressive
Bits/(Pixel*Frame) : 0.236
Stream size : 6.83 GiB (86%)
Title : Entrapment
Writing library : x264 core 56 svn-667C
Encoding settings : cabac=1 / ref=5 / deblock=1:-3:-3 / analyse=0x3:0x133 / me=umh / subme=7 / brdo=1 / mixed_ref=1 / me_range=16 / chroma_me=1 / trellis=1 / 8x8dct=1 / cqm=2 / deadzone=21,11 / chroma_qp_offset=0 / threads=3 / nr=0 / decimate=1 / mbaff=0 / bframes=3 / b_pyramid=1 / b_adapt=1 / b_bias=0 / direct=3 / wpredb=1 / bime=1 / keyint=250 / keyint_min=25 / scenecut=40(pre) / rc=2pass / bitrate=8853 / ratetol=1.0 / rceq='blurCplx^(1-qComp)' / qcomp=0.60 / qpmin=10 / qpmax=51 / qpstep=4 / cplxblur=20.0 / qblur=0.5 / ip_ratio=1.40 / pb_ratio=1.30 / aq=1:0.3:15.0
Language : English

Audio #1
ID : 2
Format : AC-3
Format/Info : Audio Coding 3
Mode extension : CM (complete main)
Codec ID : A_AC3
Duration : 1h 53mn
Bit rate mode : Constant
Bit rate : 448 Kbps
Channel(s) : 6 channels
Channel positions : Front: L C R, Side: L R, LFE
Sampling rate : 48.0 KHz
Bit depth : 16 bits
Compression mode : Lossy
Stream size : 362 MiB (4%)
Title : Dolby AC3 5.1 @ 448 kbps
Language : Russian

Audio #2
ID : 3
Format : DTS
Format/Info : Digital Theater Systems
Codec ID : A_DTS
Duration : 1h 53mn
Bit rate mode : Constant
Bit rate : 755 Kbps
Channel(s) : 6 channels
Channel positions : Front: L C R, Side: L R, LFE
Sampling rate : 48.0 KHz
Bit depth : 24 bits
Compression mode : Lossy
Stream size : 610 MiB (8%)
Title : DTS 5.1 @ 768 kbps
Language : English

Text
ID : 4
Format : UTF-8
Codec ID : S_TEXT/UTF8
Codec ID/Info : UTF-8 Plain Text
Language : English
Свернуть
Скриншоты
Изображение

Изображение

Изображение

Изображение
Свернуть
Не в сети
Профиль  
 Добавлено: 2011-06-15 11:39 (спустя 55 минут)
Аватара пользователя
Стаж: 8 лет 3 месяца
Возраст: 43
Сообщений: 3290
Спасибок: 21012
Лайков: 3
yyuuii1223
не забывайте пожалуйста ставить теги 720р и 1080p :)
_________________
Изображение
Не в сети
Профиль  
 Добавлено: 2011-07-05 13:54 (спустя 20 дней)
Аватара пользователя
Стаж: 6 лет
Сообщений: 34
Лайков: 1
Активнее раздаем!!!
Не в сети
Профиль  
 Добавлено: 2011-07-05 14:01 (спустя 7 минут)
Top-releaser
Аватара пользователя
Стаж: 6 лет 7 месяцев
Сообщений: 2078
Спасибок: 3230
Лайков: 9
Santa_Klaus
будешь кричать - ниче не получишь
Не в сети
Профиль  
Начать новую темуОтветить на тему  [ Сообщений: 4 ] 
Вы не можете начинать темы
Вы не можете отвечать на сообщения
Вы не можете редактировать свои сообщения
Вы не можете удалять свои сообщения