Правила форума

  • В этом разделе создание новых тем Запрещено.
  • Для создания новых тем пользуйтесь Корневым разделом DVD и HD фильмы.
Начать новую темуОтветить на тему  [ Сообщений: 2 ] 
Торрент файл
Размер: 9.58 GB • Зарегистрирован: 5 лет 10 месяцев • Статус: Проверено
Скачан: 78 раз • Желающих скачать: 0 • Поблагодарили: 16 раз
 Раздают: 0  |  0 KB/s  ]   Качают: 0  |  0 KB/s  ] 
 Полного источника не было 1 год 5 месяцев 
Сообщения
 Добавлено: 2011-01-26 04:05
Top-releaser
Аватара пользователя
Стаж: 6 лет 11 месяцев
Возраст: 45
Сообщений: 299
Спасибок: 4106
Лайков: 3
Запах женщины / Scent of a Woman
«Col. Frank Slade has a very special plan for the weekend. It involves travel, women, good food, fine wine, the tango, chauffeured limousines and a loaded forty-five. And he's bringing Charlie along for the ride.»

Изображение

Год выпуска: 1992
Страна: США
Жанр: драма
Продолжительность: 02:36:24
Перевод: Профессиональный (многоголосый, закадровый)

Режиссер: Мартин Брест / Martin Brest
Сценарий: Джованни Арпино / Giovanni Arpino, Бо Голдмэн / Bo Goldman, Руджеро Маккари / Ruggero Maccari, Дино Ризи / Dino Risi
Продюсер: Мартин Брест / Martin Brest, Дж. Мак Браун / G. Mac Brown, Рональд Л. Швари / Ronald L. Schwary
Оператор: Дональд И. Торин / Donald E. Thorin
Композитор: Томас Ньюман / Thomas Newman

В ролях: Аль Пачино (Lieutenant Colonel Frank Slade), Крис О’Доннелл (Charlie Simms), Джеймс Ребхорн (Mr. Trask), Габриель Анвар (Donna), Филип Сеймур Хоффман (George Willis, Jr.), Ричард Венчур (W.R. Slade), Брэдли Уитфорд (Randy), Рошелль Оливер (Gretchen), Маргарет Эджинтон (Gail), Том Риис Фаррелл (Garry), Николас Сэдлер (Harry Havemeyer), Тодд Луисо (Trent Potter)
Описание: Наступил День благодарения, и отставной полковник разведки Фрэнк Слэйд решает справить праздник, «побаловав» себя поездкой в Нью-Йорк. Фрэнк хочет обставить свой последний «коронный выход» по высшему разряду: изысканный отель, шикарный лимузин, дорогая выпивка и женщины потрясающей красоты.
Есть лишь две проблемки. Первая: Фрэнк слеп на оба глаза. И вторая: волнующиеся родственники полковника решают нанять за небольшую сумму провожатого в лице нуждающегося студента престижного колледжа по имени Чарли Симмз. Последнее, что было нужно в поездке полковнику Слэйду - так это «зеленый» юнец Чарли. Но случилось так, что путешествие этих двух потрясающе не похожих друг на друга людей изменило их жизни навсегда.

Изображение
Сборы в США: $63 095 253
Сборы в мире: $134 095 253
Мировая премьера: 23 декабря 1992
Релиз на DVD: 18 ноября 2008, «Юниверсал Пикчерс Рус»
Релиз на Blu-ray: 17 августа 2010, «Юниверсал Пикчерс Рус»
Изображение

MPAA: Изображение - Лицам до 17 лет обязательно присутствие взрослого
Качество: BDRip-AVC
Формат: Matroska
Видео: 1280x696 (16:9); 6331 Kbps; 23,976 fps; 0,296 bpp
Аудио №1: Russian; DTS; 48 KHz; 754 Kbps; CBR; 2 ch; 24 bit; [Профессиональный (многоголосый, закадровый)]
Аудио №2: English; DTS; 48 KHz; 1509 Kbps; CBR; 6 ch; 24 bit; [Original]
Субтитры: Russian, English

Раздача группы:Изображение

"MediaInfo"
Общее
Уникальный идентификатор : 190914030299452041355797917751827874593 (0x8FA0B46C2EC4066D9ECF898440F9C321)
Полное имя : J:\Torrents\Scent.of.a.Woman.1992.720p.BDRip.[R.G.Daredevil].mkv
Формат : Matroska
Размер файла : 9,58 Гбайт
Продолжительность : 2 ч. 36 м.
Общий поток : 8770 Кбит/сек
Дата кодирования : UTC 2010-08-17 13:27:39
Программа кодирования : mkvmerge v4.2.0 ('No Talking') built on Jul 28 2010 18:38:23
Библиотека кодирования : libebml v1.0.0 + libmatroska v1.0.0

Видео
Идентификатор : 1
Формат : AVC
Формат/Информация : Advanced Video Codec
Профиль формата : High@L4.1
Параметр CABAC формата : Да
Параметр ReFrames формата : 8 кадры
Идентификатор кодека : V_MPEG4/ISO/AVC
Продолжительность : 2 ч. 36 м.
Битрейт : 6490 Кбит/сек
Ширина : 1280 пикс.
Высота : 696 пикс.
Соотношение сторон : 16:9
Частота кадров : 23,976 кадр/сек
Цветовое пространство : YUV
Подвыборка цветности : 4:2:0
Битовая глубина : 8 бит
Тип развёртки : Прогрессивная
Бит/(Пиксели*Кадры) : 0.304
Размер потока : 6,92 Гбайт (72%)
Заголовок : 1280x696 (16:9); 6489 Kbps; 23,976 fps; 0,311 bpp
Библиотека кодирования : x264 core 104 r1688kMod 0b36c6d
Настройки программы : cabac=1 / ref=8 / deblock=1:-3:-2 / analyse=0x3:0x113 / me=umh / subme=10 / psy=1 / psy_rd=0.85:0.00 / mixed_ref=1 / me_range=32 / chroma_me=1 / trellis=2 / 8x8dct=1 / cqm=0 / deadzone=21,11 / fast_pskip=1 / chroma_qp_offset=-2 / threads=6 / sliced_threads=0 / nr=0 / decimate=1 / interlaced=0 / constrained_intra=0 / bframes=9 / b_pyramid=2 / b_adapt=2 / b_bias=0 / direct=3 / weightb=1 / open_gop=0 / weightp=2 / keyint=250 / keyint_min=23 / scenecut=40 / intra_refresh=0 / rc_lookahead=0 / rc=2pass / mbtree=0 / bitrate=6490 / ratetol=1.0 / qcomp=0.60 / qpmin=10 / qpmax=51 / qpstep=4 / cplxblur=20.0 / qblur=0.5 / vbv_maxrate=50000 / vbv_bufsize=62500 / ip_ratio=1.40 / pb_ratio=1.30 / aq=1:0.90 / zones=220590,224999,q=35 / nal_hrd=none
Язык : English
Коэффициенты матрицы : BT.709-5, BT.1361, IEC 61966-2-4 709, SMPTE RP177

Аудио #1
Идентификатор : 2
Формат : DTS
Формат/Информация : Digital Theater Systems
Идентификатор кодека : A_DTS
Продолжительность : 2 ч. 36 м.
Вид битрейта : Постоянный
Битрейт : 755 Кбит/сек
Канал(ы) : 2 канала(ов)
Расположение каналов : Front: L R
Частота : 48,0 КГц
Битовая глубина : 24 бит
Метод сжатия : С потерями
Размер потока : 844 Мбайт (9%)
Заголовок : MVO @ DTS 5.1 @ 768 kbps
Язык : Russian

Аудио #2
Идентификатор : 3
Формат : DTS
Формат/Информация : Digital Theater Systems
Идентификатор кодека : A_DTS
Продолжительность : 2 ч. 36 м.
Вид битрейта : Постоянный
Битрейт : 1510 Кбит/сек
Канал(ы) : 6 канала(ов)
Расположение каналов : Front: L C R, Side: L R, LFE
Частота : 48,0 КГц
Битовая глубина : 24 бит
Метод сжатия : С потерями
Размер потока : 1,65 Гбайт (17%)
Заголовок : Original @ DTS 5.1 @ 1509 kbps
Язык : English

Текст #1
Идентификатор : 4
Формат : UTF-8
Идентификатор кодека : S_TEXT/UTF8
Идентификатор кодека/Информация : UTF-8 Plain Text
Язык : Russian

Текст #2
Идентификатор : 5
Формат : UTF-8
Идентификатор кодека : S_TEXT/UTF8
Идентификатор кодека/Информация : UTF-8 Plain Text
Язык : English

Меню
00:00:00.000 : en:The Baird Preparatory School
00:06:22.924 : en:The Job Interview
00:20:06.413 : en:A Prep School Prank
00:24:24.880 : en:One Special Student
00:35:01.641 : en:I'm Giving You Pearls Here
00:39:09.138 : en:The Waldorf Astoria
00:57:42.959 : en:Thanksgiving Dinner
01:08:41.367 : en:A.45 in .25
01:19:31.016 : en:Tango Lessons
01:40:29.523 : en:The Ferrari
01:52:33.329 : en:Back Too Fast
02:12:00.621 : en:An Open Meeting
02:19:49.047 : en:The Colonel Speaks Out
02:26:15.725 : en:The Disciplinary Committee's Decision
02:30:16.674 : en:The End of a Really Hard Weekend
02:33:21.984 : en:End Titles
Свернуть
Изображение
"Скриншоты"

Изображение
Изображение
Изображение
Изображение
Изображение
Изображение
Изображение
Изображение
Свернуть
"Знаете ли Вы, что..."
  • К своей роли Аль Пачино готовился в школе для слепых. По его словам, стремясь выглядеть слепым, он не позволял себе останавливать на чем-либо свой взгляд.
  • В сцене дисциплинарного заседания директор школы обращается к Слэйду со знаменитой фразой «Вы неисправимы!», которую до этого пришлось выслушать другому герою Аль Пачино в фильме «И правосудие для всех» (1979).
  • Эпизод, в котором Слэйд спотыкается на улице о консервную банку, не был запланирован.
  • Режиссер ленты Мартин Брест отрекся от той версии картины, которую показывают в самолетах и по телевидению.
  • Когда Фрэнк только садится за руль «Феррари», камера показывает нам кадр с мостом, этот кадр - точная копия аналогичного кадра из фильма «Однажды в Америке».
Свернуть
Не в сети
Профиль  
 Добавлено: 2012-05-19 23:22 (спустя 1 год 3 месяца)
Стаж: 6 лет 10 месяцев
Сообщений: 11
:bra_vo:
Не в сети
Профиль  
Начать новую темуОтветить на тему  [ Сообщений: 2 ] 
Вы не можете начинать темы
Вы не можете отвечать на сообщения
Вы не можете редактировать свои сообщения
Вы не можете удалять свои сообщения