Правила форума

  • В этом разделе создание новых тем Запрещено.
  • Для создания новых тем пользуйтесь Корневым разделом DVD и HD фильмы.
Начать новую темуОтветить на тему  [ Сообщений: 3 ] 
Торрент файл
Размер: 6.67 GB • Зарегистрирован: 5 лет 4 месяца • Статус: Проверено
Скачан: 85 раз • Желающих скачать: 0 • Поблагодарили: 16 раз
 Раздают: 0  |  0 KB/s  ]   Качают: 0  |  0 KB/s  ] 
 Полного источника не было 2 года 11 месяцев 
Сообщения
 Добавлено: 2011-07-24 21:41
Модератор
Аватара пользователя
Стаж: 8 лет 1 месяц
Сообщений: 1991
Спасибок: 129864
Лайков: 20
Записки Лазаря / The Lazarus Papers

Изображение
Год выпуска: 2010
Страна: Изображение США
Жанр: фантастика, боевик, драма
Продолжительность:
03:56:39

Перевод: Любительский (двухголосый)

Режиссер: Джереми Хандли, Дэниэл Зирилли
Сценарий: Джереми Хандли, Д. Глэйс Ломонд
Продюсер: Джереми Хандли, Jude S. Walko, Дэниэл Зирилли, Эдвард Конна, Thaniya Maneenoppol
Оператор: Anka Malatynska
Композитор: Шон Хеннесси, Джереми Хандли

В ролях:
Дэнни Трехо (Aroon), Гэри Дэниелс (Sebastian Riker), Krystal Virulchanya (Nana), Джон Ли (Lonny Smith), Том ’Тайни’ Листер мл. (Tiny Delaney), Бай Лин (Kyo), Дэймон Уитакер (Dock Bagley), Winston Sefu (Doctor Pong), Джереми Хандли (Kajan), Jiradej Tangdumrongtham (Buisnessman), Vrinda Benedict (Jade), Адриан Боуден (Gan / Aroon's Double)

Описание: Глубоко в джунглях Юго-Восточной Азии кровожадный наёмник Себастиан ради острых ощущений охотится на людей и продаёт своих жертв в рабство. В одной из операций он убивает миролюбивого местного шамана Аруна и его семью. Как только он уходит со своей добычей, Арун умирает…лишь для того, чтобы однажды снова возвратиться к жизни. То, что случилось с Аруном, для кого-то может стать подарком, но для него это стало проклятьем - он не может умереть. Полный отчаяния и не в состоянии жить без своей семьи, он кончает жизнь самоубийством. После каждой попытки он умирает, но только для того, чтобы на следующее утро снова возродиться. Пытаясь понять, что же мешает ему умереть, Арун должен отправиться в путешествие по джунглям и городам Азии в поисках тайного способа избавления от бессмертия.


Изображение: 3.313 (58)
Изображение: 2.50 (234)


Доп. Информация

Бюджет: $3 500 000

Свернуть

Качество: BDRip 1080p
Формат: MKV
Видео: 1920x1080, 23.976fps, x264, 8641 kbps
Аудио: (RUS) AC-3 2.0, 48 kHz, 16 bits, 192 kbps
Аудио: (ENG) DTS 5.1, 48 kHz, 24 bits, 1510 kbps
Изображение
BDInfo

General
Unique ID : 251010043355411226368678530178908755289 (0xBCD6C6A055AB17A693F7F9ED673D1559)
Complete name : The.Lazarus.Papers.2010.L2.Rus.Eng.BDRip-AVC.1080p.x264.mkv
Format : Matroska
Format version : Version 2
File size : 6.67 GiB
Duration : 1h 32mn
Overall bit rate : 10.3 Mbps
Encoded date : UTC 2011-07-19 01:42:46
Writing application : mkvmerge v4.9.1 ('Ich will') сборка от Jul 11 2011 23:53:15
Writing library : libebml v1.2.1 + libmatroska v1.1.1


Video
ID : 1
Format : AVC
Format/Info : Advanced Video Codec
Format profile : High@L4.1
Format settings, CABAC : Yes
Format settings, ReFrames : 4 frames
Codec ID : V_MPEG4/ISO/AVC
Duration : 1h 32mn
Bit rate : 8 641 Kbps
Width : 1 920 pixels
Height : 1 080 pixels
Display aspect ratio : 16:9
Frame rate : 23.976 fps
Color space : YUV
Chroma subsampling : 4:2:0
Bit depth : 8 bits
Scan type : Progressive
Bits/(Pixel*Frame) : 0.174
Stream size : 5.44 GiB (82%)
Writing library : x264 core 115 r2008 4c552d8
Encoding settings : cabac=1 / ref=4 / deblock=1:0:0 / analyse=0x3:0x133 / me=umh / subme=7 / psy=1 / psy_rd=1.00:0.00 / mixed_ref=1 / me_range=16 / chroma_me=1 / trellis=1 / 8x8dct=1 / cqm=0 / deadzone=21,11 / fast_pskip=0 / chroma_qp_offset=-2 / threads=12 / sliced_threads=0 / nr=0 / decimate=1 / interlaced=0 / bluray_compat=0 / constrained_intra=0 / bframes=3 / b_pyramid=2 / b_adapt=1 / b_bias=0 / direct=1 / weightb=1 / open_gop=0 / weightp=2 / keyint=250 / keyint_min=23 / scenecut=40 / intra_refresh=0 / rc_lookahead=40 / rc=2pass / mbtree=1 / bitrate=8641 / ratetol=1.0 / qcomp=0.60 / qpmin=0 / qpmax=69 / qpstep=4 / cplxblur=20.0 / qblur=0.5 / ip_ratio=1.40 / aq=1:1.00
Language : English


Audio #1
ID : 2
Format : AC-3
Format/Info : Audio Coding 3
Mode extension : CM (complete main)
Codec ID : A_AC3
Duration : 1h 32mn
Bit rate mode : Constant
Bit rate : 192 Kbps
Channel(s) : 2 channels
Channel positions : Front: L R
Sampling rate : 48.0 KHz
Bit depth : 16 bits
Compression mode : Lossy
Stream size : 127 MiB (2%)
Language : Russian


Audio #2
ID : 3
Format : DTS
Format/Info : Digital Theater Systems
Codec ID : A_DTS
Duration : 1h 32mn
Bit rate mode : Constant
Bit rate : 1 510 Kbps
Channel(s) : 6 channels
Channel positions : Front: L C R, Side: L R, LFE
Sampling rate : 48.0 KHz
Bit depth : 24 bits
Compression mode : Lossy
Stream size : 998 MiB (15%)
Language : English
Свернуть

Скриншоты

Изображение
Изображение
Изображение
Изображение
Свернуть

_________________
Себе ты можешь не качать, но раздавать другим обязан!
Не в сети
Профиль  
 Добавлено: 2011-07-26 16:03 (спустя 1 день 18 часов)
Console V.I.P.
Аватара пользователя
Стаж: 9 лет
Сообщений: 1456
Спасибок: 690
Лайков: 12
ну где же отзывы? фу дерьмищь чтоли? :)
_________________
МАСТЕР ПО ИГРОВЫМ КОНСОЛЯМ
ПРОДАЖА И МОДЕРНИЗАЦИЯ ИГРОВЫХ КОНСОЛЕЙ

УСЛУГИ И КОНТАКТЫ (нажать чтобы посмотреть)
icq: 378004868 тел: 89049149337
Не в сети
Профиль  
 Добавлено: 2011-07-27 18:22 (спустя 1 день 2 часа)
Top-releaser
Аватара пользователя
Стаж: 8 лет 7 месяцев
Сообщений: 1286
Спасибок: 3420
Лайков: 7
А что с качеством, рип с ДВД сделан что ли? По скринам на BDRip не похоже :(
Не в сети
Профиль  
Начать новую темуОтветить на тему  [ Сообщений: 3 ] 
Вы не можете начинать темы
Вы не можете отвечать на сообщения
Вы не можете редактировать свои сообщения
Вы не можете удалять свои сообщения