Правила форума

  • В этом разделе создание новых тем Запрещено.
  • Для создания новых тем пользуйтесь Корневым разделом DVD и HD фильмы.
Начать новую темуОтветить на тему  [ Сообщений: 2 ] 
Торрент файл
Размер: 10.4 GB • Зарегистрирован: 5 лет 4 месяца • Статус: Проверено
Скачан: 122 раза • Желающих скачать: 0 • Поблагодарили: 17 раз
 Раздают: 1  |  3 KB/s  ]   Качают: 0  |  0 KB/s  ] 
Сообщения
 Добавлено: 2011-07-31 15:06
Аватара пользователя
Стаж: 8 лет 7 месяцев
Сообщений: 68
Спасибок: 210
Запрещенный прием / Sucker Punch

Изображение


Год выпуска: 2011
Страна: США
Слоган: «К такому ты не готов!»
Жанр: фэнтези, боевик, триллер, приключения
Продолжительность: 02:07:30
Версия фильма: Extended cut / Расширенная версия
Перевод: Профессиональный (дубляж+войсовер) + войсовер (Кубик в кубе) + Оригинальная звуковая дорожка
Субтитры: Русские, Английские

Режиссёр: Зак Снайдер
Сценарист: Зак Снайдер, Стив Шибуя
Продюсер: Дебора Снайдер, Зак Снайдер, Уэсли Коллер
Оператор: Ларри Фонг
Композитор: Тайлер Бейтс, Мариус Де Фриз
В ролях: Emily Browning (Эмили Браунинг), Abbie Cornish (Эбби Корниш), Jena Malone (Джена Мэлоун), Vanessa Hudgens (Ванесса Хадженс), Jamie Chung (Джейми Чанг), Carla Gugino (Карла Гуджино), Oscar Isaac (Оскар Айзек), Jon Hamm (Джон Хэмм), Scott Glenn (Скотт Гленн), Richard Cetrone (Ричард Цетрон)
Описание: Действие развернется в 1950 году. Молодую девушку по настоянию ее злодейского отчима определяют в больницу для душевнобольных, где спустя пять дней главную героиню лоботомируют. Чтобы оградиться от боли, она выдумывает сказочный мир, где и начинает планировать свой побег — для этого ей нужно раздобыть пять предметов.
Доп. информация: Расширенная версия. Отличия от театральной тут.
Часть сцен у театральной версии фильма в отличие от расширенной обладает ненамного, но бОльшим количеством деталей, часть сцен - нет. У расширенной версии есть ряд сцен более кинематографичных и темных, а у театральной - светлых в трагично-серых тонах, что, впрочем, верно и наоборот. Местами у Extended присутствует завал в красное. Некоторые дубли кадров сняты несколько по-разному.
Рейтинг MPAA: Рейтинг PG-13 (Дети до 13 лет допускаются на фильм только с родителями)
Мировая премьера: 21 марта 2011
Премьера в России: 31 марта 2011
Бюджет: $82 000 000
Кассовые сборы: $89 792 502
Изображение 6.701 (17 459)
Изображение 6.30 (55 181)

Качество: BDRip
Формат: MKV
Видео кодек: H.264
Аудио кодек: AC3, DTS
Видео: 1280x534 (2.40:1), 23.976 fps, ~8 Mbps (crf15.1)
Аудио #1: AC3, 48 kHz, 3/2 (L,C,R,l,r) + LFE ch, 640 Kbps [rus] ~ дубляж + Кубик в кубе
Аудио #2: DTS, 48 kHz, 3/2 (L,C,R,l,r) + LFE ch, 1536 Kbps [rus] ~ войсовер ~ Кубик в кубе
Аудио #3: DTS, 48 kHz, 3/2 (L,C,R,l,r) + LFE ch, 1536 Kbps [eng] ~ оригинал
Субтитры: рус. (форсированные, voronine), рус. (полные, voronine), рус. (полные, Doctor_Joker), англ., англ. (SDH) ~ встроенные/отключаемые
x264 log
Код:
sp.avs: 1280x534, 24000/1001 fps, 183433 frames
y4m [info]: 1280x534p 1:1 @ 24000/1001 fps (cfr)
x264 [info]: frame I:1295 Avg QP:13.48 size:133831 PSNR Mean Y:49.92 U:53.02 V:53.54 Avg:50.73 Global:50.42
x264 [info]: frame P:39099 Avg QP:17.34 size: 62461 PSNR Mean Y:47.01 U:50.45 V:51.17 Avg:47.89 Global:47.18
x264 [info]: frame B:143039 Avg QP:19.05 size: 35309 PSNR Mean Y:45.21 U:49.14 V:50.23 Avg:46.19 Global:45.87
x264 [info]: consecutive B-frames: 2.6% 2.4% 5.4% 17.4% 19.0% 38.2% 7.7% 2.7% 2.5% 1.3% 0.7%
x264 [info]: mb I I16..4: 6.4% 71.7% 21.9%
x264 [info]: mb P I16..4: 1.1% 18.1% 1.6% P16..4: 25.6% 35.1% 14.3% 0.0% 0.0% skip: 4.3%
x264 [info]: mb B I16..4: 0.1% 5.8% 0.2% B16..8: 36.8% 22.9% 6.8% direct: 8.6% skip:18.7% L0:43.4% L1:42.9% BI:13.7%
x264 [info]: 8x8 transform intra:89.5% inter:59.9%
x264 [info]: coded y,uvDC,uvAC intra: 94.1% 85.5% 69.2% inter: 48.2% 34.4% 13.7%
x264 [info]: i16 v,h,dc,p: 42% 15% 5% 38%
x264 [info]: i8 v,h,dc,ddl,ddr,vr,hd,vl,hu: 11% 8% 10% 10% 13% 13% 12% 11% 12%
x264 [info]: i4 v,h,dc,ddl,ddr,vr,hd,vl,hu: 19% 7% 6% 9% 14% 13% 12% 10% 11%
x264 [info]: i8c dc,h,v,p: 48% 18% 15% 19%
x264 [info]: Weighted P-Frames: Y:4.7% UV:3.3%
x264 [info]: ref P L0: 43.9% 7.9% 18.5% 7.6% 6.0% 4.4% 3.8% 2.2% 2.0% 1.7% 1.7% 0.3% 0.0%
x264 [info]: ref B L0: 73.4% 11.9% 5.6% 2.8% 2.0% 1.6% 1.2% 0.8% 0.4% 0.2%
x264 [info]: ref B L1: 92.6% 7.4%
x264 [info]: SSIM Mean Y:0.9784678 (16.669db)
x264 [info]: PSNR Mean Y:45.626 U:49.450 V:50.453 Avg:46.584 Global:46.141 kb/s:8016.06

encoded 183433 frames, 1.62 fps, 8016.06 kb/s
Свернуть
MediaInfo
Код:
General
Unique ID : 239720263920455341880951752760356381414 (0xB45871865677B58D8EB2DD2B64EA22E6)
Complete name : Sucker.Punch.Extended.Cut.2011.720p.BluRay.DTS.x264-NiP.Rus.mkv
Format : Matroska
File size : 10.4 GiB
Duration : 2h 7mn
Overall bit rate : 11.7 Mbps
Movie name : Sucker Punch (2011) Extended Cut
Encoded date : UTC 2011-07-30 11:10:12
Writing application : mkvmerge v4.9.1 ('Ich will') built on Jul 11 2011 23:53:15
Writing library : libebml v1.2.1 + libmatroska v1.1.1

Video
ID : 1
Format : AVC
Format/Info : Advanced Video Codec
Format profile : High@L4.1
Format settings, CABAC : Yes
Format settings, ReFrames : 11 frames
Codec ID : V_MPEG4/ISO/AVC
Duration : 2h 7mn
Bit rate : 7 785 Kbps
Width : 1 280 pixels
Height : 534 pixels
Display aspect ratio : 2.35:1
Frame rate : 23.976 fps
Color space : YUV
Chroma subsampling : 4:2:0
Bit depth : 8 bits
Scan type : Progressive
Bits/(Pixel*Frame) : 0.475
Stream size : 6.93 GiB (67%)
Writing library : x264 core 116 r2037 f8ebd4a
Encoding settings : cabac=1 / ref=11 / deblock=1:-3:-3 / analyse=0x3:0x113 / me=tesa / subme=11 / psy=1 / psy_rd=1.20:0.00 / mixed_ref=1 / me_range=32 / chroma_me=1 / trellis=2 / 8x8dct=1 / cqm=0 / deadzone=21,11 / fast_pskip=0 / chroma_qp_offset=-2 / threads=12 / sliced_threads=0 / nr=0 / decimate=1 / interlaced=0 / bluray_compat=0 / constrained_intra=0 / bframes=10 / b_pyramid=2 / b_adapt=2 / b_bias=0 / direct=1 / weightb=1 / open_gop=0 / weightp=2 / keyint=250 / keyint_min=23 / scenecut=40 / intra_refresh=0 / rc_lookahead=50 / rc=crf / mbtree=1 / crf=15.1 / qcomp=0.65 / qpmin=0 / qpmax=69 / qpstep=4 / vbv_maxrate=40000 / vbv_bufsize=40000 / crf_max=0.0 / nal_hrd=none / ip_ratio=1.40 / aq=2:0.50
Language : English
Matrix coefficients : BT.709-5, BT.1361, IEC 61966-2-4 709, SMPTE RP177

Audio #1
ID : 2
Format : AC-3
Format/Info : Audio Coding 3
Mode extension : CM (complete main)
Codec ID : A_AC3
Duration : 2h 7mn
Bit rate mode : Constant
Bit rate : 640 Kbps
Channel(s) : 6 channels
Channel positions : Front: L C R, Side: L R, LFE
Sampling rate : 48.0 KHz
Bit depth : 16 bits
Compression mode : Lossy
Stream size : 584 MiB (5%)
Title : AC3 5.1 @ 640 kbps (dubbed BD.CEE + DVO)
Language : Russian

Audio #2
ID : 3
Format : DTS
Format/Info : Digital Theater Systems
Codec ID : A_DTS
Duration : 2h 7mn
Bit rate mode : Constant
Bit rate : 1 510 Kbps
Channel(s) : 6 channels
Channel positions : Front: L C R, Side: L R, LFE
Sampling rate : 48.0 KHz
Bit depth : 24 bits
Compression mode : Lossy
Stream size : 1.34 GiB (13%)
Title : DTS 5.1 @ 1536 kbps (DVO Kubik v kube)
Language : Russian

Audio #3
ID : 4
Format : DTS
Format/Info : Digital Theater Systems
Codec ID : A_DTS
Duration : 2h 7mn
Bit rate mode : Constant
Bit rate : 1 510 Kbps
Channel(s) : 6 channels
Channel positions : Front: L C R, Side: L R, LFE
Sampling rate : 48.0 KHz
Bit depth : 24 bits
Compression mode : Lossy
Stream size : 1.34 GiB (13%)
Title : DTS 5.1 @ 1536 kbps
Language : English

Text #1
ID : 5
Format : UTF-8
Codec ID : S_TEXT/UTF8
Codec ID/Info : UTF-8 Plain Text
Title : Forced
Language : Russian

Text #2
ID : 6
Format : UTF-8
Codec ID : S_TEXT/UTF8
Codec ID/Info : UTF-8 Plain Text
Title : voronine
Language : Russian

Text #3
ID : 7
Format : UTF-8
Codec ID : S_TEXT/UTF8
Codec ID/Info : UTF-8 Plain Text
Title : Doctor_Joker
Language : Russian

Text #4
ID : 8
Format : UTF-8
Codec ID : S_TEXT/UTF8
Codec ID/Info : UTF-8 Plain Text
Language : English

Text #5
ID : 9
Format : UTF-8
Codec ID : S_TEXT/UTF8
Codec ID/Info : UTF-8 Plain Text
Title : SDH
Language : English

Menu
00:00:00.000 : en:00:00:00.000
00:05:59.985 : en:00:05:59.985
00:12:25.703 : en:00:12:25.703
00:24:59.456 : en:00:24:59.456
00:36:15.590 : en:00:36:15.590
00:42:35.720 : en:00:42:35.720
00:57:42.501 : en:00:57:42.501
01:01:29.936 : en:01:01:29.936
01:21:13.118 : en:01:21:13.118
01:37:03.526 : en:01:37:03.526
01:53:19.543 : en:01:53:19.543
02:01:45.757 : en:02:01:45.757
Свернуть
Скриншоты
Изображение
Изображение
Изображение
Изображение
Изображение
Изображение
Свернуть


Последний раз редактировалось Mr_Ramiro 2011-07-31 16:44, всего редактировалось 1 раз.
Не в сети
Профиль  
 Добавлено: 2011-07-31 16:07 (спустя 1 час)
Аватара пользователя
Стаж: 8 лет 3 месяца
Возраст: 43
Сообщений: 3290
Спасибок: 21012
Лайков: 3
Mr_Ramiro
Перезалейте пожалуйста скрины, они должны быть полноразмерными и формате PNG
Внимание. Для HD и HQRip-ов необходимы скриншоты в формате PNG, для остальных форматов PNG так же рекомендуется.
Исправьте пожалуйста
Как все исправите, то сообщите пожалуйста в ЛС мне или любому модератору видео. Обязательно со ссылкой на релиз :)
_________________
Изображение
Не в сети
Профиль  
Начать новую темуОтветить на тему  [ Сообщений: 2 ] 
Вы не можете начинать темы
Вы не можете отвечать на сообщения
Вы не можете редактировать свои сообщения
Вы не можете удалять свои сообщения