Правила форума

  • В этом разделе создание новых тем Запрещено.
  • Для создания новых тем пользуйтесь Корневым разделом DVD и HD фильмы.
Начать новую темуОтветить на тему  [ Сообщений: 3 ] 
Торрент файл
Размер: 25.7 GB • Зарегистрирован: 5 лет 4 месяца • Статус: Проверено
Скачан: 40 раз • Желающих скачать: 0 • Поблагодарили: 7 раз
 Раздают: 0  |  0 KB/s  ]   Качают: 0  |  0 KB/s  ] 
 Полного источника не было 3 года 2 месяца 
Сообщения
 Добавлено: 2011-07-27 06:08
Книголюб
Аватара пользователя
Стаж: 7 лет 2 месяца
Сообщений: 2823
Спасибок: 48830
Лайков: 73
Запрещенный прием
Sucker Punch

Изображение


Год выпуска: 2011
Страна: США, Канада
Слоган: «К такому ты не готов!»
Жанр: Боевик, Приключения, Триллер, Фэнтези
Продолжительность: 01:42:34
Версия фильма: Director`s cut / Режиссерская версия
Перевод: Профессиональный (дубляж) + Любительский (одноголосый закадровый)

Режиссёр: Зак Снайдер
В ролях: Эмили Браунинг, Эбби Корниш, Джена Мэлоун, Ванесса Энн Хадженс, Джэми Чунг, Карла Гуджино, Джон Хэмм, Оскар Айзек, Скотт Гленн, Вики Ламберт
Описание: Действие развернется в 1950 году. Молодую девушку по настоянию ее злодейского отчима определяют в больницу для душевнобольных, где спустя пять дней главную героиню лоботомируют. Чтобы оградиться от боли, она выдумывает сказочный мир, где и начинает планировать свой побег - для этого ей нужно раздобыть пять предметов.
--------------------------------------------------------------------------------
Рейтинг MPAA: Рейтинг PG-13 (Дети до 13 лет допускаются на фильм только с родителями)

Качество: BDRemux 1080p
Формат: MKV
Видео кодек: AVC
Аудио кодек: DTS
Видео: MPEG-4 AVC Video, NTSC, 1920x1080, VBR, 16:9, 24.6 mbps, 23.976 fps
Аудио #1: Аудио #1: Russian, Audio Coding 3, DD 5.1 ch, 48 kHz, 384 kbps | дубляж [Профессиональный (дубляж)]
Аудио #2: Аудио #2: Russian, Audio Coding 3, DD 5.1 ch, 48 kHz, 448 kbps [Любительский (одноголосый закадровый)]
Аудио #3: Аудио #3: English, DTS-HD Master Audio, 5.1 ch, 48 kHz, VBR ~3766 kbps, 24 bit (DTS Core: 5.1 ch, 48 kHz, 1509 kbps, 24-bit)
MediaInfo
General
Unique ID : 240937308321597692026209343188493188557 (0xB542D6724E30DF01A5E24C9877F0BDCD)
Complete name : J:\sucker.punch.extended.cut.bdremux.1080p.mkv
Format : Matroska
File size : 25.7 GiB
Duration : 2h 7mn
Overall bit rate : 28.9 Mbps
Encoded date : UTC 2011-07-16 05:04:42
Writing application : mkvmerge v4.8.0 ('I Got The...') сборка от May 24 2011 03:12:58
Writing library : libebml v1.2.0 + libmatroska v1.1.0

Video
ID : 1
Format : AVC
Format/Info : Advanced Video Codec
Format profile : High@L4.1
Format settings, CABAC : Yes
Format settings, ReFrames : 2 frames
Format settings, GOP : M=1, N=20
Codec ID : V_MPEG4/ISO/AVC
Duration : 2h 7mn
Bit rate mode : Variable
Bit rate : 24.6 Mbps
Width : 1 920 pixels
Height : 1 080 pixels
Display aspect ratio : 16:9
Frame rate : 23.976 fps
Color space : YUV
Chroma subsampling : 4:2:0
Bit depth : 8 bits
Scan type : Progressive
Bits/(Pixel*Frame) : 0.496
Stream size : 21.9 GiB (85%)
Title : Sucker Punch
Language : English

Audio #1
ID : 2
Format : AC-3
Format/Info : Audio Coding 3
Mode extension : CM (complete main)
Codec ID : A_AC3
Duration : 2h 7mn
Bit rate mode : Constant
Bit rate : 384 Kbps
Channel(s) : 6 channels
Channel positions : Front: L C R, Side: L R, LFE
Sampling rate : 48.0 KHz
Bit depth : 16 bits
Compression mode : Lossy
Stream size : 350 MiB (1%)
Title : Dub
Language : Russian

Audio #2
ID : 3
Format : AC-3
Format/Info : Audio Coding 3
Mode extension : CM (complete main)
Codec ID : A_AC3
Duration : 2h 7mn
Bit rate mode : Constant
Bit rate : 448 Kbps
Channel(s) : 6 channels
Channel positions : Front: L C R, Side: L R, LFE
Sampling rate : 48.0 KHz
Bit depth : 16 bits
Compression mode : Lossy
Stream size : 409 MiB (2%)
Title : VO (acolith)
Language : Russian

Audio #3
ID : 4
Format : DTS
Format/Info : Digital Theater Systems
Format profile : MA / Core
Codec ID : A_DTS
Duration : 2h 7mn
Bit rate mode : Variable
Bit rate : 2 812 Kbps / 1 510 Kbps
Channel(s) : 6 channels
Channel positions : Front: L C R, Side: L R, LFE
Sampling rate : 48.0 KHz
Bit depth : 24 bits
Compression mode : Lossless / Lossy
Title : Original
Language : English

Text #1
ID : 5
Format : PGS
Muxing mode : zlib
Codec ID : S_HDMV/PGS
Codec ID/Info : The same subtitle format used on BDs/HD-DVDs
Language : English

Text #2
ID : 6
Format : PGS
Muxing mode : zlib
Codec ID : S_HDMV/PGS
Codec ID/Info : The same subtitle format used on BDs/HD-DVDs
Language : Spanish

Text #3
ID : 7
Format : PGS
Muxing mode : zlib
Codec ID : S_HDMV/PGS
Codec ID/Info : The same subtitle format used on BDs/HD-DVDs
Language : Portuguese

Text #4
ID : 8
Format : PGS
Muxing mode : zlib
Codec ID : S_HDMV/PGS
Codec ID/Info : The same subtitle format used on BDs/HD-DVDs
Language : French

Menu
00:00:00.000 : en:00:00:00.000
00:05:59.985 : en:00:05:59.985
00:12:25.703 : en:00:12:25.703
00:24:59.456 : en:00:24:59.456
00:36:15.590 : en:00:36:15.590
00:42:35.720 : en:00:42:35.720
00:57:42.501 : en:00:57:42.501
01:01:29.936 : en:01:01:29.936
01:21:13.118 : en:01:21:13.118
01:37:03.526 : en:01:37:03.526
01:53:19.543 : en:01:53:19.543
02:01:45.757 : en:02:01:45.757


Свернуть



Скриншоты
Изображение
Изображение
Изображение
Изображение
Свернуть
Не в сети
Профиль  
 Добавлено: 2011-07-27 22:39 (спустя 16 часов)
Аватара пользователя
Стаж: 8 лет 2 месяца
Сообщений: 1776
Спасибок: 2301
Лайков: 22
Режиссёрка два часа идёт, а тут хронометраж, как у обычной.
Не в сети
Профиль  
 Добавлено: 2011-07-29 14:46 (спустя 1 день 16 часов)
Аватара пользователя
Стаж: 8 лет 8 месяцев
Возраст: 44
Сообщений: 289
Спасибок: 149
Лайков: 4
А почему на скринах такая "зернистость"?
Не в сети
Профиль  
Начать новую темуОтветить на тему  [ Сообщений: 3 ] 
Вы не можете начинать темы
Вы не можете отвечать на сообщения
Вы не можете редактировать свои сообщения
Вы не можете удалять свои сообщения