Правила форума

  • В этом разделе создание новых тем Запрещено.
  • Для создания новых тем пользуйтесь Корневым разделом DVD и HD фильмы.
Начать новую темуОтветить на тему  [ Сообщений: 2 ] 
Торрент файл
Размер: 14.56 GB • Зарегистрирован: 5 лет 4 месяца • Статус: Проверено
Скачан: 190 раз • Желающих скачать: 0 • Поблагодарили: 34 раза
 Раздают: 0  |  0 KB/s  ]   Качают: 0  |  0 KB/s  ] 
 Полного источника не было 2 года 8 месяцев 
Сообщения
 Добавлено: 2011-07-14 21:59
Модератор
Аватара пользователя
Стаж: 8 лет 1 месяц
Сообщений: 1991
Спасибок: 129863
Лайков: 20
Запрещенный прием / Sucker Punch


«К такому ты не готов!»



Изображение
Год выпуска: 2011
Страна: Изображение США, Изображение Канада
Жанр: фэнтези, боевик, триллер, приключения
Продолжительность:
02:07:31

Перевод: Профессиональный (полное дублирование) со вставками любительского (одноголосого) [лицензия]

Режиссер: Зак Снайдер
Сценарий: Зак Снайдер, Стив Шибуя
Продюсер: Дебора Снайдер, Зак Снайдер, Уэсли Коллер, Кристофер ДеФариа, Джон Дж. Джашни
Оператор: Ларри Фонг
Композитор: Тайлер Бейтс, Мариус Де Фриз

В ролях:
Эмили Браунинг (Baby Doll), Эбби Корниш (Sweet Pea), Джена Мэлоун (Rocket), Ванесса Энн Хадженс (Blondie), Джеми Чунг (Amber), Карла Гуджино (Dr. Vera Gorski), Оскар Айзек (Blue Jones), Джон Хэмм (High Roller / Doctor), Скотт Гленн (Wise Man), Ричард Цетрон (CJ), Джерард Планкет (Stepfather), Малкольм Скотт (The Cook)
Дублёры: Маша Иващенко (Baby Doll) (Baby Doll), Александра Фатхи (Sweet Pea) (Sweet Pea), Василиса Воронина (Rocket) (Rocket), Наталия Франкова (Blondie) (Blondie), Вероника Саркисова (Amber) (Amber), Ольга Зубкова (Dr. Vera Gorski) (Dr. Vera Gorski), Александр Коврижных (Blue Jones) (Blue Jones), Всеволод Кузнецов (High Roller / Doctor) (High Roller / Doctor), Тимофей Спивак (Wise Man) (Wise Man), Александр Носков (CJ) (CJ), Борис Токарев (Stepfather) (Stepfather), Сергей Вещёв (The Cook) (The Cook)

Описание: Действие развернется в 1950 году. Молодую девушку по настоянию ее злодейского отчима определяют в больницу для душевнобольных, где спустя пять дней главную героиню лоботомируют. Чтобы оградиться от боли, она выдумывает сказочный мир, где и начинает планировать свой побег - для этого ей нужно раздобыть пять предметов.


Изображение: 6.797 (13 895)
Изображение: 6.30 (47 231)

MPAA: Изображение - Детям до 13 лет просмотр не желателен

Доп. Информация

Бюджет: $82 000 000
Сборы в США: $36 392 502
Сборы в России: $3 831 792
Сборы в мире: $89 792 502
Мировая премьера: 21 марта 2011
Изображение Релиз на DVD: 21 июля 2011, «CP-Digital»
Изображение Релиз на Blu-ray: 21 июля 2011, «CP-Digital»

Свернуть


Качество: BDRip 1080p R5

Формат: MKV
Видео: 14.4 mb/s, 1920x800
Аудио: Russian: AC3, 448 kb/s (6 ch) / English: DTS, 1510 kb/s (6 ch)
Субтитры: Russian, Russian [SDH], English
Изображение


Знаете ли Вы, что...
  • Аманда Сайфред была изначальным выбором продюсеров на роль Бэбидолл, однако ей пришлось отказаться от роли из-за занятости на других проектах.
  • Ивэн Рэйчел Вуд была изначальным выбором продюсеров на роль Рокет, однако ей пришлось отказаться от роли из-за занятости на других проектах.
  • Эмма Стоун могла исполнить роль Эмбер, однако предпочла сыграть в фильме «Отличница лёгкого поведения».
  • Специально для картины актриса Эмили Браунинг записала кавер-версию известной песни группы Eurythimics - «Sweet Dreams», ее можно услышать в самом начале фильма.
  • На двух самолётах, вертолёте и роботе, которые водит Эмбер, стоит цифра 5 (по числу девушек в команде). Помимо розового кролика, под изображением которого красным начертаны несколько иероглифов, на правом защитном щитке робота изображён череп в жёлтом круге, а на левом — две вишенки. Справа ближе к щитку видны изображения трёх немецких железных крестов.
  • Над воротами психушки вывеска из литого железа: «Lennox House — Brattleboro, Vermont». Действительно, в городе Брэттлборо, штат Вермонт, есть психиатрическая больница Brattleboro Retreat. Но, в отличие от киношной, известна своими гуманными методами в отношении пациентов. Здания больниц в кино и реальности не имеют ничего схожего.
  • Брелоки на пистолете Куколки: кролик, детская бутылочка, песочные часы, плюшевый мишка, череп с бантиком. На пистолете и катане гравировка в виде буквы «B» и переплетающихся стеблей, ягод вишни, ромашек и кроликов. На ножнах для катаны рисунок в виде золотых снежинок. Дизайн оружия придумала исполнительница роли Куколки - Эмили Браунинг.
  • В поддержку фильма были выпущены четыре анимационных короткометражки режиссёра Бена Хайбона по мотивам каждого из миров, выдуманных Куколкой.
  • Ванесса Энн Хадженс согласилась на роль Блонди по той причине, что актриса не раз изъявляла желание перестать ассоциироваться у зрительской аудитории, как Габриэлла Монтез из «Классного мюзикла».
  • Эрик Дэйн был одним из кандидатов на роль Доктора (Мажора).
  • Это первый фильм Зака Снайдера, получивший рейтинг PG-13. До этого фильмы этого режиссера получали исключительно рейтинг R.
  • Несмотря на то, что Куколка является главной героиней «Запрещенного приема», у ее персонажа нет ни одной реплики в течение первых 20 минут фильма.
Свернуть
BDInfo

General

Complete name : Sucker.Punch.Extended.Cut.2011.Dub&L1.BDRip.1080p-TVB.mkv
Format : Matroska
File size : 14.6 GiB
Duration : 2h 7mn
Overall bit rate : 16.3 Mbps
Movie name : -TVB-
Encoded date : UTC 2011-07-14 14:57:36
Writing application : mkvmerge v4.8.0 ('I Got The...') сборка от May 24 2011 03:12:58
Writing library : libebml v1.2.0 + libmatroska v1.1.0

Video
ID : 1
Format : AVC
Format/Info : Advanced Video Codec
Format profile : High@L4.1
Format settings, CABAC : Yes
Format settings, ReFrames : 4 frames
Codec ID : V_MPEG4/ISO/AVC
Duration : 2h 7mn
Bit rate : 14.4 Mbps
Width : 1 920 pixels
Height : 800 pixels
Display aspect ratio : 2.40:1
Frame rate : 23.976 fps
Color space : YUV
Chroma subsampling : 4:2:0
Bit depth : 8 bits
Scan type : Progressive
Bits/(Pixel*Frame) : 0.391
Stream size : 12.5 GiB (86%)
Title : Sucker.Punch.Extended.Cut.2011.1080p.BluRay.x264.DTS-WiKi
Writing library : x264 core 107 r1745 4785e8e
Encoding settings : cabac=1 / ref=4 / deblock=1:-3:-3 / analyse=0x3:0x113 / me=umh / subme=10 / psy=1 / psy_rd=0.00:0.00 / mixed_ref=1 / me_range=64 / chroma_me=1 / trellis=2 / 8x8dct=1 / cqm=0 / deadzone=21,11 / fast_pskip=0 / chroma_qp_offset=-2 / threads=12 / sliced_threads=0 / nr=0 / decimate=0 / interlaced=0 / constrained_intra=0 / bframes=6 / b_pyramid=2 / b_adapt=2 / b_bias=0 / direct=3 / weightb=1 / open_gop=0 / weightp=2 / keyint=250 / keyint_min=23 / scenecut=40 / intra_refresh=0 / rc_lookahead=48 / rc=2pass / mbtree=1 / bitrate=14395 / ratetol=1.0 / qcomp=0.60 / qpmin=10 / qpmax=51 / qpstep=4 / cplxblur=20.0 / qblur=0.5 / ip_ratio=1.40 / aq=1:0.70
Language : English

Audio #1
ID : 2
Format : AC-3
Format/Info : Audio Coding 3
Mode extension : CM (complete main)
Codec ID : A_AC3
Duration : 2h 7mn
Bit rate mode : Constant
Bit rate : 448 Kbps
Channel(s) : 6 channels
Channel positions : Front: L C R, Side: L R, LFE
Sampling rate : 48.0 KHz
Bit depth : 16 bits
Compression mode : Lossy
Stream size : 409 MiB (3%)
Title : Dub R5 & L1
Language : Russian

Audio #2
ID : 3
Format : DTS
Format/Info : Digital Theater Systems
Codec ID : A_DTS
Duration : 2h 7mn
Bit rate mode : Constant
Bit rate : 1 510 Kbps
Channel(s) : 6 channels
Channel positions : Front: L C R, Side: L R, LFE
Sampling rate : 48.0 KHz
Bit depth : 24 bits
Compression mode : Lossy
Delay relative to video : 11ms
Stream size : 1.34 GiB (9%)
Language : English

Text #1
ID : 4
Format : UTF-8
Codec ID : S_TEXT/UTF8
Codec ID/Info : UTF-8 Plain Text
Language : Russian

Text #2
ID : 5
Format : UTF-8
Codec ID : S_TEXT/UTF8
Codec ID/Info : UTF-8 Plain Text
Title : SDH
Language : Russian

Text #3
ID : 6
Format : UTF-8
Codec ID : S_TEXT/UTF8
Codec ID/Info : UTF-8 Plain Text
Language : English

Свернуть
Скриншоты

Изображение
Изображение
Изображение
Изображение
Свернуть

_________________
Себе ты можешь не качать, но раздавать другим обязан!
Не в сети
Профиль  
 Добавлено: 2011-07-26 15:57 (спустя 11 дней)
Аватара пользователя
Стаж: 7 лет 10 месяцев
Сообщений: 13
Расширенная, а в названии не указано. Хотя и так ясно по продолжительности и одноголосным вставкам... Что ж, наконец то можно посмотреть в качестве. :ya_hoo_oo: Спасибо!
Не в сети
Профиль  
Начать новую темуОтветить на тему  [ Сообщений: 2 ] 
Вы не можете начинать темы
Вы не можете отвечать на сообщения
Вы не можете редактировать свои сообщения
Вы не можете удалять свои сообщения