Правила форума

  • В этом разделе создание новых тем Запрещено.
  • Для создания новых тем пользуйтесь Корневым разделом DVD и HD фильмы.
Начать новую темуОтветить на тему  [ 1 сообщение ] 
Торрент файл
Размер: 8.97 GB • Зарегистрирован: 4 года 2 месяца • Статус: Проверено
Скачан: 163 раза • Желающих скачать: 0 • Поблагодарили: 38 раз
 Раздают: 0  |  0 KB/s  ]   Качают: 0  |  0 KB/s  ] 
 Полного источника не было 10 месяцев 
Сообщения
 Добавлено: 2012-10-05 12:32
Руководитель релиз-группы
Аватара пользователя
Стаж: 7 лет 4 месяца
Возраст: 31
Сообщений: 3407
Спасибок: 46729
Лайков: 5
Изображение

Запретная зона
Chernobyl Diaries


Год выпуска: 2012
Страна: США
Слоган: «Десять лет назад правительство разрешило экскурсии в 'Мёртвый город'. Они утверждали, что это безопасно... они ошибались»
Жанр: ужасы
Продолжительность: 01:28:22
Перевод: Профессиональный (полное дублирование) [лицензия]
Режиссер: Брэдли Паркер
Сценарий: Орен Пели, Кэри Ван Дайк, Шэйн Ван Дайк
Продюсер: Брайан Уиттен, Орен Пели, Роб Кауэн, Бродерик Джонсон, Илдико Кемени
Оператор: Мортен Сёборг
Композитор: Диего Стокко
В ролях: Джонатан Садовский, Натан Филлипс, Джесси МакКартни, Ингрид Болсай Бердал, Дмитрий Дьяченко, Оливия Дадли, Девин Келли, Милош Тимотиевич, Милутин Милошевич, Иван Джорджевич, Иван Йович, Зинаида Дедакин
Сборы в США: $18 119 640
Сборы в России: $4 108 349
Сборы в мире: $34 219 640
Описание: Шестеро молодых туристов-экстремалов прибыли на каникулы в Украину. Узнав о том, что в Зону отчуждения устраиваются экскурсии, они нанимают гида и отправляются за незабываемыми впечатлениями. И таковые не заставляют их долго ждать. Казалось, радиоактивный город пуст и заброшен. Там не осталось ничего живого. Но как только солнце прячется за горизонт, Припять оживает. Нечеловеческие крики сотрясают ночной воздух. Незадачливых путешественников охватывают ужас и паника. Они понимают, что не одни в этом мёртвом городе.
Изображение
MPAA: Изображение
Мировая премьера: 24 мая 2012
Релиз на DVD: 5 июля 2012, «New Dream media», «Новый Диск»
Раздача группы: Изображение
Качество: BDRip, 1080p
Формат: Matroska
Видео: AVC; 1920x1036 (1.853); 12343 Kbps; 23,976 fps; 0,259 bit/pixel
Аудио №1: AC3; 384 Kbps; CBR; 6 ch Russian
Аудио №2: DTS; 1509 Kbps; CBR; 6 ch; 16 bit English
Субтитры: английские
Изображение
mediainfo
Формат : Matroska
Версия формата : Version 2
Размер файла : 8,97 Гбайт
Продолжительность : 1 ч. 28 м.
Общий поток : 14,5 Мбит/сек
Название фильма : --SCHUMAHER--
Дата кодирования : UTC 2012-10-05 05:48:25
Программа кодирования : mkvmerge v5.8.0 ('No Sleep / Pillow') built on Sep 2 2012 15:37:04
Библиотека кодирования : libebml v1.2.3 + libmatroska v1.3.0

Видео
Идентификатор : 1
Формат : AVC
Формат/Информация : Advanced Video Codec
Профиль формата : High@L4.1
Параметр CABAC формата : Да
Параметр ReFrames формата : 4 кадра
Идентификатор кодека : V_MPEG4/ISO/AVC
Продолжительность : 1 ч. 28 м.
Битрейт : 12,7 Мбит/сек
Ширина : 1920 пикселей
Высота : 1036 пикселей
Соотношение сторон : 1,853
Частота кадров : 23,976 кадра/сек
Цветовое пространство : YUV
Субдискретизация насыщенности : 4:2:0
Битовая глубина : 8 бит
Тип развёртки : Прогрессивная
Бит/(Пиксели*Кадры) : 0.265
Размер потока : 7,62 Гбайт (85%)
Библиотека кодирования : x264 core 125 r2208 d9d2288
Настройки программы : cabac=1 / ref=4 / deblock=1:-3:-3 / analyse=0x3:0x133 / me=umh / subme=10 / psy=1 / psy_rd=1.00:0.00 / mixed_ref=1 / me_range=48 / chroma_me=1 / trellis=2 / 8x8dct=1 / cqm=0 / deadzone=21,11 / fast_pskip=1 / chroma_qp_offset=-2 / threads=12 / lookahead_threads=2 / sliced_threads=0 / nr=0 / decimate=0 / interlaced=0 / bluray_compat=0 / constrained_intra=0 / bframes=7 / b_pyramid=2 / b_adapt=2 / b_bias=0 / direct=3 / weightb=1 / open_gop=0 / weightp=2 / keyint=250 / keyint_min=23 / scenecut=40 / intra_refresh=0 / rc_lookahead=80 / rc=2pass / mbtree=1 / bitrate=12661 / ratetol=1.0 / qcomp=0.60 / qpmin=0 / qpmax=69 / qpstep=4 / cplxblur=20.0 / qblur=0.5 / vbv_maxrate=30000 / vbv_bufsize=30000 / nal_hrd=none / ip_ratio=1.50 / aq=1:1.00
Язык : English
Default : Да
Forced : Да

Аудио #1
Идентификатор : 2
Формат : AC-3
Формат/Информация : Audio Coding 3
Расширение режима : CM (complete main)
Параметр Endianness формата : Big
Идентификатор кодека : A_AC3
Продолжительность : 1 ч. 28 м.
Вид битрейта : Постоянный
Битрейт : 384 Кбит/сек
Каналы : 6 каналов
Расположение каналов : Front: L C R, Side: L R, LFE
Частота : 48,0 КГц
Битовая глубина : 16 бит
Метод сжатия : С потерями
Размер потока : 243 Мбайт (3%)
Язык : Russian
Default : Да
Forced : Да

Аудио #2
Идентификатор : 3
Формат : DTS
Формат/Информация : Digital Theater Systems
Идентификатор кодека : A_DTS
Продолжительность : 1 ч. 28 м.
Вид битрейта : Постоянный
Битрейт : 1510 Кбит/сек
Каналы : 6 каналов
Расположение каналов : Front: L C R, Side: L R, LFE
Частота : 48,0 КГц
Битовая глубина : 16 бит
Метод сжатия : С потерями
Размер потока : 954 Мбайт (10%)
Язык : English
Default : Нет
Forced : Нет

Текст
Идентификатор : 4
Формат : UTF-8
Идентификатор кодека : S_TEXT/UTF8
Идентификатор кодека/Информация : UTF-8 Plain Text
Язык : English
Default : Нет
Forced : Нет
Свернуть
"Знаете ли Вы, что..."
  • Первые идеи к истории фильма пришли в голову Орену Пели, когда он наткнулся на опубликованные в интернете фотографии путешествующей по Припяти девушки.
  • Фильм не показывался заранее для критиков.
  • Во время поисков Юрия Мишель, Пол и Аманда идут по следу в заброшенное здание. Пока они разговаривают на кухне, след на пыльной земле полностью исчезает, и опять появляется в следующем кадре, как только они возобновляют поиски.
  • Существует одна почти завершенная градирня (охладительная башня) и одна едва начатая, которые должны были быть использованы для блоков 5 и 6 Чернобыльской АЭС. В фильме же показывают 3 или 4 полностью построенных градирни, что не является правдой.
  • На парковке, где стоял простреленный троллейбус ЗиУ-682 (хотя в Припяти троллейбусного сообщения не было), стояли автомобили ВАЗ 21099, который появился в 1991, а также ВАЗ 2109 с «длинным крылом», который в 1986 году никак не мог существовать (хотя они могли быть оставлены там и после 90-ых). Также ошибкой можно считать и наличие автомобилей Москвич-2141, которые начали серийно выпускаться только во второй половине 1986 года, в то время как сама авария произошла в апреле.
  • Когда Юрий в первый раз попытался проехать через КПП можно было увидеть двух солдат в краповых беретах (скорее всего это бойцы спецвойск), с первым завязал разговор Юрий, а в это время второй обходил фургон вокруг. У него в руках виден складной приклад автомата Калашникова десантной версии, но такие приклады присутствуют только на АКМС, а с вооружения Украинских войск он был снят ещё в 90-ых.
  • В фильме говорится, что от Припяти до ближайшего блокпоста 20 километров, но на самом деле от ЧАЭС (что в километре от города энергетиков) до ближайшего КПП 10 километров. Также прямо перед въездом в город должен находиться пост санитарной охраны.
  • Когда группа заходит в одно из зданий, красный свет от камеры оператора отражается в стеклянных дверях.
Свернуть
Скриншоты

Изображение

Изображение

Изображение

Изображение
Свернуть
Не в сети
Профиль  
Начать новую темуОтветить на тему  [ 1 сообщение ] 
Вы не можете начинать темы
Вы не можете отвечать на сообщения
Вы не можете редактировать свои сообщения
Вы не можете удалять свои сообщения