Правила форума

  • В этом разделе создание новых тем Запрещено.
  • Для создания новых тем пользуйтесь Корневым разделом DVD и HD фильмы.
Начать новую темуОтветить на тему  [ Сообщений: 5 ] 
Торрент файл
Размер: 4.37 GB • Зарегистрирован: 4 года 1 месяц • Статус: Проверено
Скачан: 35 раз • Желающих скачать: 0 • Поблагодарили: 18 раз
 Раздают: 0  |  0 KB/s  ]   Качают: 0  |  0 KB/s  ] 
 Полного источника не было 1 год 3 месяца 
Сообщения
 Добавлено: 2012-10-11 21:25
Аватара пользователя
Стаж: 7 лет 4 месяца
Возраст: 21
Сообщений: 419
Спасибок: 12709
Лайков: 18
Изображение
Запретная зона / Chernobyl Diaries

«Десять лет назад правительство разрешило экскурсии в 'Мёртвый город'. Они утверждали, что это безопасно... они ошибались»

Год выпуска: 2012
Страна: США
Жанр: Ужасы
Продолжительность: 01:28:22
Перевод: Профессиональный (полное дублирование)

Режиссер: Брэдли Паркер
Сценарий: Орен Пели, Кэри Ван Дайк, Шэйн Ван Дайк
Продюсер: Брайан Уиттен, Орен Пели, Роб Кауэн
Оператор: Мортен Сёборг
Композитор: Диего Стокко

В ролях: Ингрид Болсай Бердал, Дмитрий Дьяченко, Оливия Дадли, Девин Келли, Джесси МакКартни, Натан Филлипс, Джонатан Садовский, Милош Тимотиевич, Милутин Милошевич, Иван Джорджевич

Описание: Шестеро молодых туристов-экстремалов прибыли на каникулы в Украину. Узнав о том, что в Зону отчуждения устраиваются экскурсии, они нанимают гида и отправляются за незабываемыми впечатлениями. И таковые не заставляют их долго ждать. Казалось, радиоактивный город пуст и заброшен. Там не осталось ничего живого. Но как только солнце прячется за горизонт, Припять оживает. Нечеловеческие крики сотрясают ночной воздух. Незадачливых путешественников охватывают ужас и паника. Они понимают, что не одни в этом мёртвом городе.

Раздача: Изображение


kinopoisk.ru: 4.919 (9 421)
imdb.com: 5.1 (11 440)


Сборы в мире: $34 219 640
Сборы в США: $18 119 640
Мировая премьера: 24 мая 2012
Премьера РФ: 24 мая 2012, «Top Film Distribution»
Релиз на DVD: 5 июля 2012, «New Dream media», «Новый Диск»


Качество: BDRip [1080p]
Формат: Matroska
Видео: 1920x1040, 6690 Кбит/сек, 23,976 кадр/сек, AVC, x264, 16:9, 0.140 Бит/[Пиксели*Кадры], 2pass
Аудио: AC-3, 384 Кбит/сек, 6 канала(ов), 48,0 КГц


Изображение

Знаете ли Вы, что...
• Первые идеи к истории фильма пришли в голову Орену Пели, когда он наткнулся на опубликованные в интернете фотографии путешествующей по Припяти девушки.
• Фильм не показывался заранее для критиков.
• Во время поисков Юрия Мишель, Пол и Аманда идут по следу в заброшенное здание. Пока они разговаривают на кухне, след на пыльной земле полностью исчезает, и опять появляется в следующем кадре, как только они возобновляют поиски.
• Существует одна почти завершенная градирня (охладительная башня) и одна едва начатая, которые должны были быть использованы для блоков 5 и 6 Чернобыльской АЭС. В фильме же показывают 3 или 4 полностью построенных градирни, что не является правдой.
• На парковке, где стоял простреленный троллейбус ЗиУ-682 (хотя в Припяти троллейбусного сообщения не было), стояли автомобили ВАЗ 21099, который появился в 1991, а также ВАЗ 2109 с «длинным крылом», который в 1986 году никак не мог существовать (хотя они могли быть оставлены там и после 90-ых). Также ошибкой можно считать и наличие автомобилей Москвич-2141, которые начали серийно выпускаться только во второй половине 1986 года, в то время как сама авария произошла в апреле.
• Когда Юрий в первый раз попытался проехать через КПП можно было увидеть двух солдат в краповых беретах (скорее всего это бойцы спецвойск), с первым завязал разговор Юрий, а в это время второй обходил фургон вокруг. У него в руках виден складной приклад автомата Калашникова десантной версии, но такие приклады присутствуют только на АКМС, а с вооружения Украинских войск он был снят ещё в 90-ых.
• В фильме говорится, что от Припяти до ближайшего блокпоста 20 километров, но на самом деле от ЧАЭС (что в километре от города энергетиков) до ближайшего КПП 10 километров. Также прямо перед въездом в город должен находиться пост санитарной охраны.
• Когда группа заходит в одно из зданий, красный свет от камеры оператора отражается в стеклянных дверях.
Свернуть


MediaInfo:
Общее
Уникальный идентификатор : 248120461067050929242132216206970419149 (0xBAAA433856DED7A4BF8CD4311B2D77CD)
Полное имя : E:ЗагрузкиChernobyl Diaries 2012.x264.BDRip.1080p.DUB.mkv
Формат : Matroska
Версия формата : Version 2
Размер файла : 4,37 Гбайт
Продолжительность : 1 ч. 28 м.
Общий поток : 7074 Кбит/сек
Дата кодирования : UTC 2012-10-10 02:48:45
Программа кодирования : mkvmerge v5.5.0 ('Healer') built on Apr 6 2012 21:43:24
Библиотека кодирования : libebml v1.2.3 + libmatroska v1.3.0

Видео
Идентификатор : 1
Формат : AVC
Формат/Информация : Advanced Video Codec
Профиль формата : High@L4.0
Параметр CABAC формата : Да
Параметр ReFrames формата : 4 кадра
Идентификатор кодека : V_MPEG4/ISO/AVC
Продолжительность : 1 ч. 28 м.
Битрейт : 6690 Кбит/сек
Ширина : 1920 пикселей
Высота : 1040 пикселей
Соотношение сторон : 16:9
Соотношение сторон в оригинале : 16:9
Частота кадров : 23,976 кадра/сек
Цветовое пространство : YUV
Субдискретизация насыщенности : 4:2:0
Битовая глубина : 8 бит
Тип развёртки : Прогрессивная
Бит/(Пиксели*Кадры) : 0.140
Размер потока : 4,04 Гбайт (93%)
Заголовок : Запретная зона
Библиотека кодирования : x264 core 128 r2216 198a7ea
Настройки программы : cabac=1 / ref=4 / deblock=1:0:0 / analyse=0x3:0x133 / me=hex / subme=7 / psy=1 / psy_rd=1.00:0.00 / mixed_ref=1 / me_range=16 / chroma_me=1 / trellis=1 / 8x8dct=1 / cqm=0 / deadzone=21,11 / fast_pskip=1 / chroma_qp_offset=-2 / threads=12 / lookahead_threads=2 / sliced_threads=0 / nr=0 / decimate=1 / interlaced=0 / bluray_compat=0 / constrained_intra=0 / bframes=3 / b_pyramid=2 / b_adapt=1 / b_bias=0 / direct=1 / weightb=1 / open_gop=0 / weightp=2 / keyint=240 / keyint_min=23 / scenecut=40 / intra_refresh=0 / rc_lookahead=40 / rc=2pass / mbtree=1 / bitrate=6690 / ratetol=1.0 / qcomp=0.60 / qpmin=10 / qpmax=51 / qpstep=4 / cplxblur=20.0 / qblur=0.5 / ip_ratio=1.40 / aq=1:1.00
Язык : English
Default : Да
Forced : Нет

Аудио
Идентификатор : 2
Формат : AC-3
Формат/Информация : Audio Coding 3
Расширение режима : CM (complete main)
Идентификатор кодека : A_AC3
Продолжительность : 1 ч. 28 м.
Вид битрейта : Постоянный
Битрейт : 384 Кбит/сек
Каналы : 6 каналов
Расположение каналов : Front: L C R, Side: L R, LFE
Частота : 48,0 КГц
Битовая глубина : 16 бит
Метод сжатия : С потерями
Размер потока : 243 Мбайт (5%)
Заголовок : Дублированный
Язык : Russian
Default : Да
Forced : Нет
Свернуть


Скриншоты


Изображение


Изображение


Изображение


Изображение


Свернуть
Не в сети
Профиль  
 Добавлено: 2012-10-11 21:28 (спустя 3 минуты)
Аватара пользователя
Стаж: 8 лет 1 месяц
Возраст: 27
Сообщений: 176
Спасибок: 968
Лайков: 1
Dimon19995
:bra_vo: :co_ol:
Не в сети
Профиль  
 Добавлено: 2014-04-12 11:17 (спустя 1 год 6 месяцев)
Стаж: 8 лет 3 месяца
Сообщений: 34
Раздайте пожалуйста!
Не в сети
Профиль  
 Добавлено: 2014-04-12 21:05 (спустя 9 часов)
Стаж: 7 лет 5 месяцев
Сообщений: 103
Лайков: 4
геракл в штаны накакал, не самый лучший фильм
Не в сети
Профиль  
 Добавлено: 2014-04-26 10:40 (спустя 13 дней)
Аватара пользователя
Стаж: 4 года 10 месяцев
Возраст: 29
Сообщений: 86
Лайков: 1

viktor gregorian:

геракл в штаны накакал, не самый лучший фильм
не плохое сравнение ))))
Не в сети
Профиль  
Начать новую темуОтветить на тему  [ Сообщений: 5 ] 
Вы не можете начинать темы
Вы не можете отвечать на сообщения
Вы не можете редактировать свои сообщения
Вы не можете удалять свои сообщения