Правила форума

  • В этом разделе создание новых тем Запрещено.
  • Для создания новых тем пользуйтесь Корневым разделом DVD и HD фильмы.
Начать новую темуОтветить на тему  [ Сообщений: 3 ] 
Торрент файл
Размер: 13.66 GB • Зарегистрирован: 4 года 6 месяцев • Статус: Проверено
Скачан: 262 раза • Желающих скачать: 0 • Поблагодарили: 35 раз
 Раздают: 0  |  0 KB/s  ]   Качают: 0  |  0 KB/s  ] 
 Полного источника не было 7 месяцев 
Сообщения
 Добавлено: 2012-05-29 07:37
Модератор релиз-группы
Аватара пользователя
Стаж: 9 лет 1 месяц
Возраст: 97
Сообщений: 11660
Спасибок: 6532
Лайков: 269
Защитник / Safe

Изображение


Год выпуска: 2012
Страна: США
Жанр: боевик, криминал
Продолжительность: 01:34:08
Перевод: Профессиональный (полное дублирование)

Режиссер: Боаз Якин

В ролях: Джейсон Стэтем, Катрин Чан, Роберт Джон Бёрк, Джеймс Хонг, Энсон Маунт, Крис Сарандон, Сандор Текси, Джозеф Сикора, Игорь Жижикин, Регги Ли

Описание: Бывший агент элитных спецслужб спасает девочку с уникальными способностями из цепких лап Нью-Йоркской мафии. Она - единственная, кто знает код от сейфа, где хранятся миллионы долларов китайских Триад. И теперь только профессионал может защитить ее от мафии, азиатских ассасинов и коррумпированных полицейских. На улицах Нью-Йорка развернется погоня за девочкой, которой очень повезло с Защитником...
Изображение
Качество: BDRemux
Формат: mkv
Видео: MPEG-4 AVC Video, 19260 kbps, 1080p, 24 fps, 16:9, High Profile 4.1
Аудио: DTS; 1509 Kbps; CBR; 6 ch; 24 bit Russian
скриншоты
Изображение

Изображение

Изображение
Свернуть
Mi
Format : Matroska
Format version : Version 2
File size : 13.7 GiB
Duration : 1h 34mn
Overall bit rate mode : Variable
Overall bit rate : 20.8 Mbps
Encoded date : UTC 2012-05-29 04:16:27
Writing application : mkvmerge v5.6.0 ('Kenya Kane') built on May 27 2012 16:44:04
Writing library : libebml v1.2.3 + libmatroska v1.3.0

Video
ID : 1
Format : AVC
Format/Info : Advanced Video Codec
Format profile : High@L4.1
Format settings, CABAC : Yes
Format settings, ReFrames : 4 frames
Codec ID : V_MPEG4/ISO/AVC
Duration : 1h 34mn
Bit rate mode : Variable
Bit rate : 18.8 Mbps
Maximum bit rate : 25.0 Mbps
Width : 1 920 pixels
Height : 1 080 pixels
Display aspect ratio : 16:9
Frame rate : 24.000 fps
Standard : NTSC
Color space : YUV
Chroma subsampling : 4:2:0
Bit depth : 8 bits
Scan type : Progressive
Bits/(Pixel*Frame) : 0.379
Stream size : 12.4 GiB (91%)
Default : Yes
Forced : No
Color primaries : BT.709-5, BT.1361, IEC 61966-2-4, SMPTE RP177
Transfer characteristics : BT.709-5, BT.1361
Matrix coefficients : BT.709-5, BT.1361, IEC 61966-2-4 709, SMPTE RP177

Audio
ID : 2
Format : DTS
Format/Info : Digital Theater Systems
Codec ID : A_DTS
Duration : 1h 34mn
Bit rate mode : Constant
Bit rate : 1 510 Kbps
Channel(s) : 6 channels
Channel positions : Front: L C R, Side: L R, LFE
Sampling rate : 48.0 KHz
Bit depth : 24 bits
Compression mode : Lossy
Stream size : 1 017 MiB (7%)
Default : Yes
Forced : No

Свернуть
_________________
Изображение
Не в сети
Профиль  
 Добавлено: 2012-06-18 22:21 (спустя 20 дней)
Стаж: 7 лет 8 месяцев
Сообщений: 105
типичный америкэн фильм, один человек одним выстрелом сразу 2х, потом в одиночку еще человек 15 шутя выносит, побеждает всех, и получает кучу бабла. сказка.
Не в сети
Профиль  
 Добавлено: 2012-07-31 20:56 (спустя 1 месяц 12 дней)
Аватара пользователя
Стаж: 8 лет 3 месяца
Сообщений: 20
Ну плин, у Стэтема все фильмы такие ;) Трах-бабах и все в ауте ;) Этим он и хорош :-D
Не в сети
Профиль  
Начать новую темуОтветить на тему  [ Сообщений: 3 ] 
Вы не можете начинать темы
Вы не можете отвечать на сообщения
Вы не можете редактировать свои сообщения
Вы не можете удалять свои сообщения