Правила форума

  • В этом разделе создание новых тем Запрещено.
  • Для создания новых тем пользуйтесь Корневым разделом DVD и HD фильмы.
Начать новую темуОтветить на тему  [ Сообщений: 2 ] 
Торрент файл
Размер: 7.79 GB • Зарегистрирован: 4 года 6 месяцев • Статус: Проверено
Скачан: 365 раз • Желающих скачать: 0 • Поблагодарили: 57 раз
 Раздают: 0  |  0 KB/s  ]   Качают: 0  |  0 KB/s  ] 
 Полного источника не было 28 дней 
Сообщения
 Добавлено: 2012-05-29 16:25
Руководитель релиз-группы
Аватара пользователя
Стаж: 7 лет 4 месяца
Возраст: 31
Сообщений: 3407
Спасибок: 46729
Лайков: 5
Изображение

Защитник
Safe


Год выпуска: 2012
Страна: США
Слоган: «Он - её единственный шанс. Она - его последняя надежда.»
Жанр: боевик, криминал
Продолжительность: 01:34:08
Перевод: Профессиональный (полное дублирование)
Режиссер: Боаз Якин
Сценарий: Боаз Якин
Продюсер: Лоуренс Бендер, Дэна Брунетти, Стив Чэсмэн
Оператор: Стефан Чапски
Композитор: Марк Мазерсбо
В ролях: Джейсон Стэтем, Катрин Чан, Роберт Джон Бёрк, Джеймс Хонг, Энсон Маунт, Крис Сарандон, Сандор Текси, Джозеф Сикора, Игорь Жижикин, Регги Ли
Бюджет: $30 000 000
Сборы в мире: $34 417 795
Описание: Бывший агент элитных спецслужб спасает девочку с уникальными способностями из цепких лап Нью-Йоркской мафии. Она - единственная, кто знает код от сейфа, где хранятся миллионы долларов китайских Триад. И теперь только профессионал может защитить ее от мафии, азиатских ассасинов и коррумпированных полицейских. На улицах Нью-Йорка развернется погоня за девочкой, которой очень повезло с Защитником...
Изображение
MPAA: Изображение
Раздача группы: Изображение
Качество: BDRip, 1080p
Формат: Matroska
Видео: AVC; 1920x816 (2.35:1); 10101 Kbps; 24 fps; 0,269 bit/pixel
Аудио: DTS; 1509 Kbps; CBR; 6 ch; 24 bit Russian
Изображение
mediainfo
Format : Matroska
Format version : Version 2
File size : 7.79 GiB
Duration : 1h 34mn
Overall bit rate : 11.8 Mbps
Encoded date : UTC 2012-05-29 02:01:18
Writing application : mkvmerge v5.2.0 ('I can't explain') built on Dec 18 2011 18:12:03
Writing library : libebml v1.2.3 + libmatroska v1.3.0

Video
ID : 1
Format : AVC
Format/Info : Advanced Video Codec
Format profile : High@L4.1
Format settings, CABAC : Yes
Format settings, ReFrames : 5 frames
Codec ID : V_MPEG4/ISO/AVC
Duration : 1h 34mn
Bit rate : 10.1 Mbps
Nominal bit rate : 11.0 Mbps
Width : 1 920 pixels
Height : 816 pixels
Display aspect ratio : 2.35:1
Frame rate : 24.000 fps
Color space : YUV
Chroma subsampling : 4:2:0
Bit depth : 8 bits
Scan type : Progressive
Bits/(Pixel*Frame) : 0.269
Stream size : 6.64 GiB (85%)
Writing library : x264 core 125 r2200 999b753
Encoding settings : cabac=1 / ref=5 / deblock=1:-3:-3 / analyse=0x3:0x133 / me=umh / subme=9 / psy=1 / psy_rd=1.00:0.15 / mixed_ref=1 / me_range=24 / chroma_me=1 / trellis=1 / 8x8dct=1 / cqm=0 / deadzone=21,11 / fast_pskip=0 / chroma_qp_offset=-3 / threads=12 / lookahead_threads=2 / sliced_threads=0 / nr=0 / decimate=1 / interlaced=0 / bluray_compat=0 / constrained_intra=0 / bframes=8 / b_pyramid=2 / b_adapt=2 / b_bias=0 / direct=3 / weightb=1 / open_gop=0 / weightp=2 / keyint=250 / keyint_min=24 / scenecut=40 / intra_refresh=0 / rc_lookahead=60 / rc=abr / mbtree=1 / bitrate=11000 / ratetol=1.0 / qcomp=0.60 / qpmin=0 / qpmax=69 / qpstep=4 / ip_ratio=1.40 / aq=1:1.00
Default : Yes
Forced : No

Audio
ID : 2
Format : DTS
Format/Info : Digital Theater Systems
Codec ID : A_DTS
Duration : 1h 34mn
Bit rate mode : Constant
Bit rate : 1 510 Kbps
Channel(s) : 6 channels
Channel positions : Front: L C R, Side: L R, LFE
Sampling rate : 48.0 KHz
Bit depth : 24 bits
Compression mode : Lossy
Stream size : 1 017 MiB (13%)
Language : Russian
Default : Yes
Forced : No

Menu
00:00:00.000 : en:00:00:00.000
00:06:38.833 : en:00:06:38.833
00:11:12.625 : en:00:11:12.625
00:17:29.292 : en:00:17:29.292
00:23:46.292 : en:00:23:46.292
00:29:06.958 : en:00:29:06.958
00:35:09.167 : en:00:35:09.167
00:40:06.167 : en:00:40:06.167
00:44:08.917 : en:00:44:08.917
00:53:06.083 : en:00:53:06.083
00:57:49.458 : en:00:57:49.458
01:07:59.250 : en:01:07:59.250
01:14:17.125 : en:01:14:17.125
01:20:28.958 : en:01:20:28.958
01:25:18.792 : en:01:25:18.792
Свернуть
Скриншоты

Изображение
Изображение
Изображение
Изображение
Свернуть
Не в сети
Профиль  
 Добавлено: 2012-05-29 17:42 (спустя 1 час 16 минут)
Аватара пользователя
Стаж: 8 лет 10 месяцев
Возраст: 27
Сообщений: 721
Спасибок: 5528
Лайков: 1
А AC3 дорожки нету? У меня телик не воспроизводит DTS :(
_________________
Изображение
Не в сети
Профиль  
Начать новую темуОтветить на тему  [ Сообщений: 2 ] 
Вы не можете начинать темы
Вы не можете отвечать на сообщения
Вы не можете редактировать свои сообщения
Вы не можете удалять свои сообщения