Правила форума

  • В этом разделе создание новых тем Запрещено.
  • Для создания новых тем пользуйтесь Корневым разделом DVD и HD фильмы.
Начать новую темуОтветить на тему  [ Сообщений: 5 ] 
Торрент файл
Размер: 7.67 GB • Зарегистрирован: 5 лет 6 месяцев • Статус: Проверено
Скачан: 163 раза • Желающих скачать: 0 • Поблагодарили: 27 раз
 Раздают: 0  |  0 KB/s  ]   Качают: 0  |  0 KB/s  ] 
 Полного источника не было 2 года 6 месяцев 
Сообщения
 Добавлено: 2011-05-23 19:06
Модератор
Аватара пользователя
Стаж: 7 лет 9 месяцев
Сообщений: 4521
Спасибок: 112850
Лайков: 583
Затаившиеся 3D
Hidden 3D


«Есть вещи, о которых лучше забыть…»



Изображение
Год выпуска: 2011
Страна: Изображение Канада, Изображение Италия
Жанр: ужасы, триллер
Продолжительность:
01:21:21

Перевод: Профессиональный (полное дублирование) [лицензия]

Режиссёр: Антуан Томас

В ролях: Шон Клемент (Brian Karter), Симонетта Солдер (Haley Gable), Джордан Хэйес (Vicky), Джейсон Бликер (Simon), Бьянка Мерджел (Kimberly), Девон Бостик (Lucas), Эллиотт Ларсон-Гилмор ( Haley's Son), Аллан Колмэн (Chester), Кристина Розато (Newsreporter)

Дублёры: Денис Беспалый (Brian Karter), Диомид Виноградов (Lucas), Владимир Антоник (Chester)
Описание: Компания молодых людей отправляется на выходные в опустевший монастырь, где некогда располагался загадочный медицинский центр для людей с тяжелыми зависимостями. Вскоре выясняется, что над пациентами тайно проводились бесчеловечные эксперименты, в результате которых изгнанные из людей пороки никуда не исчезли, а затаились в стенах древнего здания и ждут своего часа. Они переполнены жаждой мести и уже никого не выпустят наружу...

Раздача: Изображение

Изображение: 3.176 (353)
Изображение: 5.30 (9)


Качество: BDRip 1080p R5
Формат: MKV
Видео: 1920x1080, 23.976 fps, x264, 11,0 mb/s
Аудио: DTS 5.1, 48 kHz, 32 bit, 1152 kbps [Rus]
Аудио 2: DTS 5.1, 48 kHz, 32 bit, 1344 kbps [Eng]
Формат субтитров: softsub (SRT)
Скачать: сэмпл


MediaInfo
Общее
Уникальный идентификатор : 180052676017847424041508881406454376279 (0x8774E24FDABEDE2F995C198C0787A757)
Полное имя : Zataivshiesja.2011.x264.D.BDRip.1080p.mkv
Формат : Matroska
Размер файла : 7,67 Гбайт
Продолжительность : 1 ч. 21 м.
Общий поток : 13,5 Мбит/сек
Дата кодирования : UTC 2011-05-23 09:23:32
Программа кодирования : mkvmerge v4.7.0 ('Just Like You Imagined') сборка от Apr 21 2011 01:13:14
Библиотека кодирования : libebml v1.2.0 + libmatroska v1.1.0

Видео
Идентификатор : 1
Формат : AVC
Формат/Информация : Advanced Video Codec
Профиль формата : High@L4.1
Параметр CABAC формата : Да
Параметр ReFrames формата : 4 кадры
Идентификатор кодека : V_MPEG4/ISO/AVC
Продолжительность : 1 ч. 21 м.
Битрейт : 11,0 Мбит/сек
Ширина : 1920 пикс.
Высота : 1080 пикс.
Соотношение сторон : 16:9
Частота кадров : 23,976 кадр/сек
Цветовое пространство : YUV
Подвыборка цветности : 4:2:0
Битовая глубина : 8 бит
Тип развёртки : Прогрессивная
Бит/(Пиксели*Кадры) : 0.221
Размер потока : 6,09 Гбайт (80%)
Библиотека кодирования : x264 core 114 r1924 08d04a4
Настройки программы : cabac=1 / ref=4 / deblock=1:-3:-3 / analyse=0x3:0x133 / me=umh / subme=10 / psy=1 / psy_rd=1.05:0.10 / mixed_ref=1 / me_range=64 / chroma_me=1 / trellis=2 / 8x8dct=1 / cqm=0 / deadzone=21,11 / fast_pskip=1 / chroma_qp_offset=-3 / threads=9 / sliced_threads=0 / nr=0 / decimate=1 / interlaced=0 / constrained_intra=0 / bframes=8 / b_pyramid=2 / b_adapt=2 / b_bias=0 / direct=3 / weightb=1 / open_gop=0 / weightp=2 / keyint=250 / keyint_min=23 / scenecut=40 / intra_refresh=0 / rc_lookahead=60 / rc=2pass / mbtree=1 / bitrate=11000 / ratetol=1.0 / qcomp=0.70 / qpmin=0 / qpmax=69 / qpstep=4 / cplxblur=20.0 / qblur=0.5 / vbv_maxrate=50000 / vbv_bufsize=62500 / nal_hrd=none / ip_ratio=1.40 / aq=1:0.90

Аудио #1
Идентификатор : 2
Формат : DTS
Формат/Информация : Digital Theater Systems
Идентификатор кодека : A_DTS
Продолжительность : 1 ч. 21 м.
Вид битрейта : Постоянный
Битрейт : 1152 Кбит/сек
Канал(ы) : 6 канала(ов)
Расположение каналов : Front: L C R, Side: L R, LFE
Частота : 48,0 КГц
Битовая глубина : 16 бит
Метод сжатия : С потерями
Размер потока : 671 Мбайт (9%)
Язык : Russian

Аудио #2
Идентификатор : 3
Формат : DTS
Формат/Информация : Digital Theater Systems
Идентификатор кодека : A_DTS
Продолжительность : 1 ч. 21 м.
Вид битрейта : Постоянный
Битрейт : 1344 Кбит/сек
Канал(ы) : 6 канала(ов)
Расположение каналов : Front: L C R, Side: L R, LFE
Частота : 48,0 КГц
Битовая глубина : 16 бит
Метод сжатия : С потерями
Размер потока : 782 Мбайт (10%)
Язык : English

Текст
Идентификатор : 4
Формат : UTF-8
Идентификатор кодека : S_TEXT/UTF8
Идентификатор кодека/Информация : UTF-8 Plain Text
Язык : Russian
Свернуть
Доп. Информация
Бюджет: $8 000 000
Сборы в России: $821 555
Мировая премьера: 21 апреля 2011
Изображение Релиз на DVD: 18 мая 2011, «Кармен Видео»
Изображение Релиз на Blu-ray: 18 мая 2011, «Кармен Видео»
Свернуть
Скриншоты
Изображение
Изображение
Изображение
Свернуть
_________________
Изображение
Не в сети
Профиль  
 Добавлено: 2011-05-24 10:30 (спустя 15 часов)
Аватара пользователя
Стаж: 8 лет 10 месяцев
Возраст: 35
Сообщений: 33
скачаю! посмотрим!!! :)
Не в сети
Профиль  
 Добавлено: 2011-05-26 10:51 (спустя 2 дня)
Аватара пользователя
Стаж: 8 лет 10 месяцев
Возраст: 35
Сообщений: 33
не интересный фильм, мне не понравился (((
Не в сети
Профиль  
 Добавлено: 2011-07-18 21:42 (спустя 1 месяц 23 дня)
Стаж: 6 лет 4 месяца
Сообщений: 1
как фильм кто смотрел?
Не в сети
Профиль  
 Добавлено: 2012-12-10 17:39 (спустя 1 год 4 месяца)
Аватара пользователя
Стаж: 5 лет 11 месяцев
Сообщений: 223
Спасибок: 52
Лайков: 3
Раздайте пожалуйста
_________________
† Найти смысл жизни — это счастье, найти счастье в жизни — это смысл †
Не в сети
Профиль  
Начать новую темуОтветить на тему  [ Сообщений: 5 ] 
Вы не можете начинать темы
Вы не можете отвечать на сообщения
Вы не можете редактировать свои сообщения
Вы не можете удалять свои сообщения