Правила форума

  • В этом разделе создание новых тем Запрещено.
  • Для создания новых тем пользуйтесь Корневым разделом DVD и HD фильмы.
Начать новую темуОтветить на тему  [ Сообщений: 3 ] 
Торрент файл
Размер: 2.69 GB • Зарегистрирован: 1 год 2 месяца • Статус: T Временный релиз
Скачан: 120 раз • Желающих скачать: 0 • Поблагодарили: 22 раза
 Раздают: 2  |  0 KB/s  ]   Качают: 0  |  0 KB/s  ] 
Сообщения
 Добавлено: 2015-09-29 23:48
Top-seeder
Аватара пользователя
Стаж: 8 лет 1 месяц
Возраст: 102
Сообщений: 6779
Спасибок: 2009
Лайков: 5756
Затаившись / Hidden

Год выпуска: 2015
Изображение

Производство: США / Primal Pictures (II), Warner Bros. Pictures

Жанр: Ужасы, Триллер

Режиссер: Мэтт Даффер, Росс Даффер

Актеры: Александр Скарсгард, Андреа Райзборо, Эмили Элин Линд, Хезер Дорксен, Уильям Энскау

Описание фильма: Рэй, Клэр и их семилетняя дочь Зои — обычная американская семья, живущая в Кингсвилле, Северная Каролина, — вот только живут они в бомбоубежище с тех самых пор, как наступил конец света, который изменил все. За 301 день они превратили свою бетонную темницу в дом, держась за воспоминания о прошлом и надеясь когда-нибудь вернуться к нормальной жизни. 301 день им удавалось избегать того, что обитает на поверхности, — тяжелое дыхание, грохочущие шаги, раздающиеся в ночи, внушают страх находящимся в хрупком убежище. Все это время семье удавалось оставаться незамеченной. До сих пор. Сейчас их безопасность под угрозой… и нечто идет за ними.

Перевод: Двуголосый закадровый, любительский

Озвучка / Автор перевода: den904 & DeadSno (перевод dcshka)

Язык субтитров: Английский

Вид субтитров: Вшитые отключаемые

Изображение

Изображение

Продолжительность: 01:23:13
Качество: WEB-DL

Видео: AVC/H.264, 1280x532, ~3959 kb/s
Аудио 1: AC3, 2 ch, 192 Kb/s - (Русский)
Аудио 2: AC3, 2 ch, 384 Kb/s - (Английский)

Mediainfo:
General
Unique ID : 223186908268675356108310771277092060958 (0xA7E83C27D84B47479E36F52A11277F1E)
Complete name : D:\Films\Hidden.2015.720p.WEB-DL.mkv
Format : Matroska
Format version : Version 4 / Version 2
File size : 2.69 GiB
Duration : 1h 23mn
Overall bit rate : 4 627 Kbps
Movie name : RARBG.COM - Hidden.2015.720p.WEB-DL.DD5.1.H264-RARBG
Encoded date : UTC 2015-09-23 18:29:34
Writing application : mkvmerge v7.3.0 ('Nouages') 32bit built on Oct 22 2014 18:44:01
Writing library : libebml v1.3.0 + libmatroska v1.4.1
DURATION : 01:23:13.408000000
NUMBER_OF_FRAMES : 156044
NUMBER_OF_BYTES : 239683584
_STATISTICS_WRITING_APP : mkvmerge v7.3.0 ('Nouages') 32bit built on Oct 22 2014 18:44:01
_STATISTICS_WRITING_DATE_UTC : 2015-09-23 18:29:34
_STATISTICS_TAGS : BPS DURATION NUMBER_OF_FRAMES NUMBER_OF_BYTES

Video
ID : 1
Format : AVC
Format/Info : Advanced Video Codec
Format profile : Main@L3.1
Format settings, CABAC : No
Format settings, ReFrames : 2 frames
Codec ID : V_MPEG4/ISO/AVC
Duration : 1h 23mn
Bit rate : 3 959 Kbps
Width : 1 280 pixels
Height : 532 pixels
Display aspect ratio : 2.40:1
Frame rate mode : Constant
Frame rate : 23.976 fps
Color space : YUV
Chroma subsampling : 4:2:0
Bit depth : 8 bits
Scan type : Progressive
Bits/(Pixel*Frame) : 0.243
Stream size : 2.30 GiB (86%)
Title : Hidden.2015.720p.WEB-DL.DD5.1.H264-RARBG
Language : English
Default : Yes
Forced : No
Color range : Limited
Color primaries : BT.709
Transfer characteristics : BT.709
Matrix coefficients : BT.709

Audio #1
ID : 3
Format : AC-3
Format/Info : Audio Coding 3
Mode extension : CM (complete main)
Format settings, Endianness : Big
Codec ID : A_AC3
Duration : 1h 23mn
Bit rate mode : Constant
Bit rate : 192 Kbps
Channel(s) : 2 channels
Channel positions : Front: L R
Sampling rate : 48.0 KHz
Compression mode : Lossy
Stream size : 114 MiB (4%)
Language : Russian
Default : Yes
Forced : No

Audio #2
ID : 4
Format : AC-3
Format/Info : Audio Coding 3
Mode extension : CM (complete main)
Format settings, Endianness : Big
Codec ID : A_AC3
Duration : 1h 23mn
Bit rate mode : Constant
Bit rate : 384 Kbps
Channel(s) : 6 channels
Channel positions : Front: L C R, Side: L R, LFE
Sampling rate : 48.0 KHz
Compression mode : Lossy
Stream size : 229 MiB (8%)
Language : English
Default : No
Forced : No

Text
ID : 2
Format : UTF-8
Codec ID : S_TEXT/UTF8
Codec ID/Info : UTF-8 Plain Text
Language : English
Default : No
Forced : No
Свернуть

Скриншоты:
Изображение
Изображение
Изображение
Изображение
Свернуть
Не в сети
Профиль  
 Добавлено: 2015-10-06 22:53 (спустя 6 дней)
Стаж: 7 лет 5 месяцев
Сообщений: 103
Лайков: 4
треш..
Не в сети
Профиль  
 Добавлено: 2015-10-26 23:25 (спустя 20 дней)
Аватара пользователя
Стаж: 6 лет 8 месяцев
Возраст: 30
Сообщений: 88
Лайков: 6
Фильм с началом но без конца.Вроде бы и заканчивается с намеком на продолжение но таких фильмов очень много у которых продолжения явно не будет.Интересно только ближе к концу а потом - бац! И опять облом.Качество и перевод очень страдает .В общем фильм слабенький.
Не в сети
Профиль  
Начать новую темуОтветить на тему  [ Сообщений: 3 ] 
Вы не можете начинать темы
Вы не можете отвечать на сообщения
Вы не можете редактировать свои сообщения
Вы не можете удалять свои сообщения