Правила форума

  • В этом разделе создание новых тем Запрещено.
  • Для создания новых тем пользуйтесь Корневым разделом DVD и HD фильмы.
Начать новую темуОтветить на тему  [ 1 сообщение ] 
Торрент файл
Размер: 13.97 GB • Зарегистрирован: 2 месяца 14 дней • Статус: Проверено
Скачан: 32 раза • Желающих скачать: 0 • Поблагодарили: 13 раз
 Раздают: 1  |  0 KB/s  ]   Качают: 1  |  0 KB/s  ] 
Сообщения
 Добавлено: 2014-01-21 13:15
Аватара пользователя
Стаж: 8 лет 9 месяцев
Сообщений: 59
Спасибок: 336
Затерянный мир / Land of the Lost

Изображение


Год выпуска: 2009
Страна: США
Слоган: «В нужном месте. В ненужный час.»
Жанр: фантастика, комедия, приключения
Продолжительность: 01:41:40
Перевод: Профессиональный (дубляж)
Субтитры: Русские

Режиссёр: Брэд Силберлинг
Сценарист: Крис Хенчи, Деннис МакНиколас, Сид Кроффт
Продюсер: Марти Кроффт, Сид Кроффт, Джимми Миллер
Оператор: Дион Биби
Композитор: Майкл Джаккино
В ролях: Уилл Феррелл, Анна Фрил, Леонард Нимой, Дэнни МакБрайд, Йорма Такконе, Джон Бойлан, Мэтт Лоэр, Бобби Дж. Томпсон, Сьерра МакКормик, Шеннон Лемке, Стиви Уолш мл.
Описание: Невероятно-захватывающие приключения неудачника-палеонтолога, его ассистентки и красавчика-гида, которые случайно находят странный мир, заселенный динозаврами и прочими австралопитеками.
Рейтинг MPAA: Рейтинг PG-13 (Дети до 13 лет допускаются на фильм только с родителями)
Мировая премьера: 5 июня 2009
Премьера в России: 11 июня 2009
Бюджет: $100 000 000
Кассовые сборы: $68 688 831
Изображение Изображение

Качество: BDRip 1080p
Формат: MKV
Видео кодек: x.264
Аудио кодек: DTS
Видео: 1920x1040, 17.4 Mbps, 23.976 fps
Аудио #1: DTS, 768 Kbps, 6 channels, 48.0 KHz [Профессиональный (дубляж)]
Аудио #2: DTS, 1536 Kbps, 6 channels, 48.0 KHz (Eng)
Субтитры: Русские, английские
Скриншоты
Изображение
Изображение
Изображение
Свернуть


"MI"
204158410984494214055708374706600519941 (0x99977ACE5D06B2A4AD0D81CAE107A905)
Complete name : D:\Вова\Кино\Затерянный мир.2009.BluRay.1080p.DTS.x264.mkv
Format : Matroska
Format version : Version 2
File size : 14.0 GiB
Duration : 1h 41mn
Overall bit rate : 19.7 Mbps
Encoded date : UTC 2009-10-20 09:45:21
Writing application : mkvmerge v2.9.8 ('C'est le bon') built on Aug 13 2009 12:49:06
Writing library : libebml v0.7.7 + libmatroska v0.8.1

Video
ID : 1
Format : AVC
Format/Info : Advanced Video Codec
Format profile : High@L4.1
Format settings, CABAC : Yes
Format settings, ReFrames : 5 frames
Codec ID : V_MPEG4/ISO/AVC
Duration : 1h 41mn
Bit rate : 17.4 Mbps
Width : 1 920 pixels
Height : 1 040 pixels
Display aspect ratio : 1.85:1
Frame rate : 23.976 fps
Color space : YUV
Chroma subsampling : 4:2:0
Bit depth : 8 bits
Scan type : Progressive
Bits/(Pixel*Frame) : 0.363
Stream size : 12.1 GiB (86%)
Writing library : x264 core 75 r1259M dd026f2
Encoding settings : cabac=1 / ref=5 / deblock=1:-3:-3 / analyse=0x3:0x113 / me=umh / subme=10 / psy=1 / psy_rd=1.0:0.0 / mixed_ref=1 / me_range=32 / chroma_me=1 / trellis=2 / 8x8dct=1 / cqm=0 / deadzone=21,11 / chroma_qp_offset=-2 / threads=12 / nr=0 / decimate=0 / mbaff=0 / bframes=3 / b_pyramid=0 / b_adapt=2 / b_bias=0 / direct=3 / wpredb=1 / keyint=250 / keyint_min=25 / scenecut=40 / rc_lookahead=40 / rc=2pass / mbtree=1 / bitrate=17399 / ratetol=1.0 / qcomp=0.60 / qpmin=10 / qpmax=51 / qpstep=4 / cplxblur=20.0 / qblur=0.5 / vbv_maxrate=38000 / vbv_bufsize=30000 / ip_ratio=1.40 / aq=1:0.50 / pulldown=0 / nal_hrd=0
Language : English
Default : Yes
Forced : No

Audio #1
ID : 2
Format : DTS
Format/Info : Digital Theater Systems
Codec ID : A_DTS
Duration : 1h 41mn
Bit rate mode : Constant
Bit rate : 755 Kbps
Channel(s) : 6 channels
Channel positions : Front: L C R, Side: L R, LFE
Sampling rate : 48.0 KHz
Bit depth : 24 bits
Compression mode : Lossy
Stream size : 549 MiB (4%)
Title : DTS 5.1 768 kbps
Language : Russian
Default : Yes
Forced : No

Audio #2
ID : 3
Format : DTS
Format/Info : Digital Theater Systems
Codec ID : A_DTS
Duration : 1h 41mn
Bit rate mode : Constant
Bit rate : 1 510 Kbps
Channel(s) : 6 channels
Channel positions : Front: L C R, Side: L R, LFE
Sampling rate : 48.0 KHz
Bit depth : 24 bits
Compression mode : Lossy
Stream size : 1.07 GiB (8%)
Title : DTS 5.1 1536 kbps
Language : English
Default : No
Forced : No

Text #1
ID : 4
Format : UTF-8
Codec ID : S_TEXT/UTF8
Codec ID/Info : UTF-8 Plain Text
Language : Russian
Default : No
Forced : No

Text #2
ID : 5
Format : UTF-8
Codec ID : S_TEXT/UTF8
Codec ID/Info : UTF-8 Plain Text
Language : English
Default : No
Forced : No


Свернуть


Тема поднималась пользователем uzu 2014-01-21 13:15.
Не в сети
Профиль  
Начать новую темуОтветить на тему  [ 1 сообщение ] 
Вы не можете начинать темы
Вы не можете отвечать на сообщения
Вы не можете редактировать свои сообщения
Вы не можете удалять свои сообщения