Правила форума

  • В этом разделе создание новых тем Запрещено.
  • Для создания новых тем пользуйтесь Корневым разделом DVD и HD фильмы.
Начать новую темуОтветить на тему  [ 1 сообщение ] 
Торрент файл
Размер: 17.59 GB • Зарегистрирован: 4 года 9 месяцев • Статус: Проверено
Скачан: 31 раз • Желающих скачать: 0 • Поблагодарили: 9 раз
 Раздают: 0  |  0 KB/s  ]   Качают: 0  |  0 KB/s  ] 
 Полного источника не было 7 месяцев 
Сообщения
 Добавлено: 2012-03-03 17:06
Инквизитор
Аватара пользователя
Стаж: 8 лет 8 месяцев
Сообщений: 3753
Спасибок: 28360
Лайков: 9
Изображение

Завтрак у Тиффани / Breakfast at Tiffany's


Год выпуска: 1961
Страна: США
Слоган: «Audrey Hepburn plays that daring, darling Holly Golightly to a new high in entertainment delight!»
Жанр: драма, мелодрама, комедия
Продолжительность: 01:55:05
Перевод: Профессиональный (многоголосый, закадровый) x 4, Авторский (Живов Юрий), Авторский (Кузнецов Сергей), Авторский (Медведев Алексей)
Режиссер: Блейк Эдвардс
Сценарий: Джордж Аксельрод, Трумэн Капоте
Продюсер: Мартин Джуроу, Ричард Шеперд
Оператор: Франц Плэйнер, Филип Х. Лэтроп
Композитор: Генри Манчини
В ролях: Одри Хепберн (Holly Golightly,), Джордж Пеппард (Paul 'Fred' Varjak), Патриция , Нил (2-E), Бадди Эбсен (Doc Golightly), Мартин Болсам (O.J. Berman), Хосе Луис де , Вильялонга (José da Silva Pereira), Джон МакГайвер (Tiffany's Salesman), Алан Рид , (Sally Tomato), Дороти Уитни (Mag Wildwood), Беверли Пауэрс (Nightclub Stripper), Стэнли Адамс (Rusty Trawler), Клод Страуд (Sid Arbuck)
Бюджет: $2 500 000
Сборы в США: $8 000 000
Описание: Столица сильных мира сего и уютное гнездышко очаровательной Холли Голайтли. Кто-то назовет ее девицей по вызову, кто-то - авантюристкой.
Одни подумают, что она хитра как лисица. Другие решат, что глупа как пробка. Холли это безразлично. Она наслаждается жизнью, меняет наряды и ищет богатого жениха. Но однажды этажом выше появляется симпатичный молодой человек&#133;</div>

Изображение
Мировая премьера: 5 октября 1961
Релиз на DVD: 19 января 2010, «Юниверсал Пикчерс Рус»
Релиз на Blu-ray: 15 декабря 2011, «Новый Диск»
Раздача группы: Изображение
Качество: BDRip, 1080p
Формат: Matroska
Видео: AVC; 1920x1080 (16:9); 16567 Kbps; 23,976 fps; 0,333 bit/pixel
Аудио №1: Russian; AC3; 640 Kbps; CBR; 6 ch
Аудио №2: Russian; AC3; 448 Kbps; CBR; 6 ch
Аудио №3: Russian; AC3; 192 Kbps; CBR; 2 ch
Аудио №4: Russian; AC3; 192 Kbps; CBR; 2 ch
Аудио №5: Russian; AC3; 192 Kbps; CBR; 2 ch
Аудио №6: Russian; AC3; 192 Kbps; CBR; 2 ch
Аудио №7: Russian; DTS; 1509 Kbps; CBR; 6 ch; 24 bit
Аудио №8: DTS; 1509 Kbps; CBR; 6 ch; 24 bit

Субтитры №1: Russian
Субтитры №2: Russian
Субтитры №3: English

"Знаете ли Вы, что..."
  • Знаменитое маленькое черное платье, в котором героиня Хепберн появляется в фильме, было создано лично Юбером де Живанши.
  • Первоначально планировалось, что фильм снимет Джон Франкенхаймер, а главную роль сыграет Мэрилин Монро.
  • Знаменитая сцена в начале фильма, где Одри Хепберн идет в одиночестве по пустынным улицам Нью-Йорк, а затем подходит к магазину Tiffany, на самом деле снималась под наблюдением сотен зевак. Это раздражало Хепберн, и она постоянно ошибалась, но в конце концов сосредоточилась, и сцена была отснята.
  • Одри Хепберн признавалась, что эпизод, в котором она выкидывает кота на грязную, дождливую улицу, был самым неприятным для неё во всем фильме.
  • Немецкая почтовая марка 2001 года, для создания эскиза которой использовался образ Одри Хепберн из фильма «Завтрак у Тиффани», стала филателистической редкостью и стоит более 50 тысяч евро.
  • Магазин «Тиффани» специально для съемочной группы был открыт в воскресенье: это произошло впервые с девятнадцатого века.
  • Японская компания «Jun Planning» выпустила куклу Холли Голлайтли.
  • За роль в «Завтраке у Тиффани» Хепберн получила 750 тысяч долларов, став тогда самой высокооплачиваемой актрисой Голливуда.
  • По слухам роль Холли Голайтли могла сыграть Ким Новак.
  • Роль Пола Варжака предлагалась Стиву МакКуину, но он был вынужден отказаться, так как был занят на съемках фильма «Разыскивается живым или мертвым».
  • 4 декабря 2006 года черное платье, которое носит героиня Одри Хепберн, было продано за 807 тысяч долларов на аукционе Сhristie's в Лондоне.
  • Первоначально текст песни начинался так: «I'm Holly, like I want to be / like Holly on a tree back home...». Хотя фильм начинается с этой музыкальной темы, стихи на песню впервые звучат в сцене, где Пол «Фред» Варжак (персонаж в исполнении Джорджа Пеппарда), обнаруживает Холли Голайтли (героиню Одри Хепберн), с гитарой в руках, поющую «Moon river» на пожарной лестнице.
  • В фильме, Холли и Пол крадут из магазина «Five and Dime» пару пластмассовых масок для Хэллоуина. Маска Пола — это пёс Хэклбэрри, якобы ссылка на «huckleberry friend» (черничный друг) из песни «Moon river».
Свернуть
M.I.
Общее
Уникальный идентификатор                 : 211080309472487924063474891280885523480 (0x9ECC96C013A73600B28B54E89A38A418)
Полное имя                               : F:\Фильмы\Завтрак у Тиффани (1961. Breakfast at Tiffany's) BDRip 1080p.mkv
Формат                                   : Matroska
Версия формата                           : Version 2
Размер файла                             : 17,6 Гбайт
Продолжительность                        : 1 ч. 55 м.
Общий поток                              : 21,9 Мбит/сек
Название фильма                          : Breakfast.at.Tiffany's.1961.1080p.BluRay.DTS.x264-CRiSC [rutracker.org]
Дата кодирования                         : UTC 2011-09-12 18:26:53
Программа кодирования                    : mkvmerge v4.9.1 ('Ich will') сборка от Jul 11 2011 23:53:15
Библиотека кодирования                   : libebml v1.2.1 + libmatroska v1.1.1

Видео
Идентификатор                            : 1
Формат                                   : AVC
Формат/Информация                        : Advanced Video Codec
Профиль формата                          : High@L4.1
Параметр CABAC формата                   : Да
Параметр ReFrames формата                : 4 кадра
Идентификатор кодека                     : V_MPEG4/ISO/AVC
Продолжительность                        : 1 ч. 55 м.
Битрейт                                  : 17,0 Мбит/сек
Ширина                                   : 1920 пикселей
Высота                                   : 1080 пикселей
Соотношение сторон                       : 16:9
Частота кадров                           : 23,976 кадра/сек
Цветовое пространство                    : YUV
Субдискретизация насыщенности            : 4:2:0
Битовая глубина                          : 8 бит
Тип развёртки                            : Прогрессивная
Бит/(Пиксели*Кадры)                      : 0.342
Размер потока                            : 13,3 Гбайт (76%)
Заголовок                                : Breakfast at Tiffany's (1961)
Библиотека кодирования                   : x264 core 116 r2074 2641b9e
Настройки программы                      : cabac=1 / ref=4 / deblock=1:-3:-3 / analyse=0x3:0x133 / me=umh / subme=11 / psy=1 / psy_rd=0.90:0.10 / mixed_ref=1 / me_range=64 / chroma_me=1 / trellis=2 / 8x8dct=1 / cqm=0 / deadzone=21,11 / fast_pskip=0 / chroma_qp_offset=-3 / threads=12 / sliced_threads=0 / nr=0 / decimate=0 / interlaced=0 / bluray_compat=0 / constrained_intra=0 / bframes=6 / b_pyramid=2 / b_adapt=2 / b_bias=0 / direct=3 / weightb=1 / open_gop=0 / weightp=2 / keyint=250 / keyint_min=23 / scenecut=40 / intra_refresh=0 / rc_lookahead=40 / rc=2pass / mbtree=0 / bitrate=17000 / ratetol=1.0 / qcomp=0.60 / qpmin=0 / qpmax=69 / qpstep=4 / cplxblur=20.0 / qblur=0.5 / vbv_maxrate=50000 / vbv_bufsize=62500 / nal_hrd=none / ip_ratio=1.40 / pb_ratio=1.30 / aq=1:0.70
Язык                                     : English
Default                                  : Да
Forced                                   : Нет
Основные цвета                           : BT.709-5, BT.1361, IEC 61966-2-4, SMPTE RP177
Характеристики трансфера                 : BT.709-5, BT.1361
Коэффициенты матрицы                     : BT.709-5, BT.1361, IEC 61966-2-4 709, SMPTE RP177

Аудио #1
Идентификатор                            : 2
Формат                                   : AC-3
Формат/Информация                        : Audio Coding 3
Расширение режима                        : CM (complete main)
Идентификатор кодека                     : A_AC3
Продолжительность                        : 1 ч. 55 м.
Вид битрейта                             : Постоянный
Битрейт                                  : 640 Кбит/сек
Каналы                                   : 6 каналов
Расположение каналов                     : Front: L C R, Side: L R, LFE
Частота                                  : 48,0 КГц
Битовая глубина                          : 16 бит
Метод сжатия                             : С потерями
Размер потока                            : 527 Мбайт (3%)
Заголовок                                : MVO [CEE]
Язык                                     : Russian
Default                                  : Нет
Forced                                   : Нет

Аудио #2
Идентификатор                            : 3
Формат                                   : AC-3
Формат/Информация                        : Audio Coding 3
Расширение режима                        : CM (complete main)
Идентификатор кодека                     : A_AC3
Продолжительность                        : 1 ч. 55 м.
Вид битрейта                             : Постоянный
Битрейт                                  : 448 Кбит/сек
Каналы                                   : 6 каналов
Расположение каналов                     : Front: L C R, Side: L R, LFE
Частота                                  : 48,0 КГц
Битовая глубина                          : 16 бит
Метод сжатия                             : С потерями
Размер потока                            : 369 Мбайт (2%)
Заголовок                                : MVO [Film Prestige]
Язык                                     : Russian
Default                                  : Нет
Forced                                   : Нет

Аудио #3
Идентификатор                            : 4
Формат                                   : AC-3
Формат/Информация                        : Audio Coding 3
Расширение режима                        : CM (complete main)
Идентификатор кодека                     : A_AC3
Продолжительность                        : 1 ч. 55 м.
Вид битрейта                             : Постоянный
Битрейт                                  : 192 Кбит/сек
Каналы                                   : 2 канала
Расположение каналов                     : Front: L R
Частота                                  : 48,0 КГц
Битовая глубина                          : 16 бит
Метод сжатия                             : С потерями
Размер потока                            : 158 Мбайт (1%)
Заголовок                                : MVO [с пиратского диска]
Язык                                     : Russian
Default                                  : Нет
Forced                                   : Нет

Аудио #4
Идентификатор                            : 5
Формат                                   : AC-3
Формат/Информация                        : Audio Coding 3
Расширение режима                        : CM (complete main)
Идентификатор кодека                     : A_AC3
Продолжительность                        : 1 ч. 55 м.
Вид битрейта                             : Постоянный
Битрейт                                  : 192 Кбит/сек
Каналы                                   : 2 канала
Расположение каналов                     : Front: L R
Частота                                  : 48,0 КГц
Битовая глубина                          : 16 бит
Метод сжатия                             : С потерями
Размер потока                            : 158 Мбайт (1%)
Заголовок                                : MVO [неизвестный]
Язык                                     : Russian
Default                                  : Нет
Forced                                   : Нет

Аудио #5
Идентификатор                            : 6
Формат                                   : AC-3
Формат/Информация                        : Audio Coding 3
Расширение режима                        : CM (complete main)
Идентификатор кодека                     : A_AC3
Продолжительность                        : 1 ч. 55 м.
Вид битрейта                             : Постоянный
Битрейт                                  : 192 Кбит/сек
Каналы                                   : 2 канала
Расположение каналов                     : Front: L R
Частота                                  : 48,0 КГц
Битовая глубина                          : 16 бит
Метод сжатия                             : С потерями
Размер потока                            : 158 Мбайт (1%)
Заголовок                                : AVO [Кузнецов, Деваль-Видео]
Язык                                     : Russian
Default                                  : Нет
Forced                                   : Нет

Аудио #6
Идентификатор                            : 7
Формат                                   : AC-3
Формат/Информация                        : Audio Coding 3
Расширение режима                        : CM (complete main)
Идентификатор кодека                     : A_AC3
Продолжительность                        : 1 ч. 55 м.
Вид битрейта                             : Постоянный
Битрейт                                  : 192 Кбит/сек
Каналы                                   : 2 канала
Расположение каналов                     : Front: L R
Частота                                  : 48,0 КГц
Битовая глубина                          : 16 бит
Метод сжатия                             : С потерями
Размер потока                            : 158 Мбайт (1%)
Заголовок                                : AVO [Медведев]
Язык                                     : Russian
Default                                  : Нет
Forced                                   : Нет

Аудио #7
Идентификатор                            : 8
Формат                                   : DTS
Формат/Информация                        : Digital Theater Systems
Идентификатор кодека                     : A_DTS
Продолжительность                        : 1 ч. 55 м.
Вид битрейта                             : Постоянный
Битрейт                                  : 1510 Кбит/сек
Каналы                                   : 6 каналов
Расположение каналов                     : Front: L C R, Side: L R, LFE
Частота                                  : 48,0 КГц
Битовая глубина                          : 24 бит
Метод сжатия                             : С потерями
Размер потока                            : 1,21 Гбайт (7%)
Заголовок                                : AVO [Живов]
Язык                                     : Russian
Default                                  : Нет
Forced                                   : Нет

Аудио #8
Идентификатор                            : 9
Формат                                   : DTS
Формат/Информация                        : Digital Theater Systems
Идентификатор кодека                     : A_DTS
Продолжительность                        : 1 ч. 55 м.
Вид битрейта                             : Постоянный
Битрейт                                  : 1510 Кбит/сек
Каналы                                   : 6 каналов
Расположение каналов                     : Front: L C R, Side: L R, LFE
Частота                                  : 48,0 КГц
Битовая глубина                          : 24 бит
Метод сжатия                             : С потерями
Размер потока                            : 1,21 Гбайт (7%)
Язык                                     : English
Default                                  : Нет
Forced                                   : Нет

Текст #1
Идентификатор                            : 10
Формат                                   : UTF-8
Идентификатор кодека                     : S_TEXT/UTF8
Идентификатор кодека/Информация          : UTF-8 Plain Text
Заголовок                                : CEE
Язык                                     : Russian
Default                                  : Нет
Forced                                   : Нет

Текст #2
Идентификатор                            : 11
Формат                                   : UTF-8
Идентификатор кодека                     : S_TEXT/UTF8
Идентификатор кодека/Информация          : UTF-8 Plain Text
Заголовок                                : Film Prestige
Язык                                     : Russian
Default                                  : Нет
Forced                                   : Нет

Текст #3
Идентификатор                            : 12
Формат                                   : UTF-8
Идентификатор кодека                     : S_TEXT/UTF8
Идентификатор кодека/Информация          : UTF-8 Plain Text
Язык                                     : English
Default                                  : Нет
Forced                                   : Нет

Меню
00:00:00.000                             : en:00:00:00.000
00:13:20.633                             : en:00:13:20.633
00:17:03.564                             : en:00:17:03.564
00:24:44.066                             : en:00:24:44.066
00:39:54.225                             : en:00:39:54.225
00:41:55.471                             : en:00:41:55.471
00:43:50.503                             : en:00:43:50.503
00:52:02.703                             : en:00:52:02.703
00:57:51.885                             : en:00:57:51.885
01:04:34.662                             : en:01:04:34.662
01:19:41.944                             : en:01:19:41.944
01:26:02.908                             : en:01:26:02.908
01:33:07.040                             : en:01:33:07.040
01:44:36.479                             : en:01:44:36.479
Свернуть
Скриншоты

Изображение
Изображение
Изображение
Изображение
Свернуть

Не в сети
Профиль  
Начать новую темуОтветить на тему  [ 1 сообщение ] 
Вы не можете начинать темы
Вы не можете отвечать на сообщения
Вы не можете редактировать свои сообщения
Вы не можете удалять свои сообщения