Правила форума

  • В этом разделе создание новых тем Запрещено.
  • Для создания новых тем пользуйтесь Корневым разделом DVD и HD фильмы.
Начать новую темуОтветить на тему  [ Сообщений: 6 ] 
Торрент файл
Размер: 12.75 GB • Зарегистрирован: 5 лет 1 месяц • Статус: Проверено
Скачан: 390 раз • Желающих скачать: 0 • Поблагодарили: 56 раз
 Раздают: 1  |  0 KB/s  ]   Качают: 0  |  0 KB/s  ] 
Сообщения
 Добавлено: 2011-10-09 11:34
Руководитель релиз-группы
Аватара пользователя
Стаж: 8 лет 6 месяцев
Возраст: 25
Сообщений: 7578
Спасибок: 51914
Лайков: 14
Зеленый Фонарь
Green Lantern

Изображение

Год выпуска: 2011
Страна: США
Слоган: «Во тьме ночной, при свете дня...»

Жанр: фантастика, фэнтези, боевик, триллер, приключения
Продолжительность: 02:03:39
Перевод: Профессиональный (полное дублирование) + Любительский одноголосый (zamez)

Режиссер: Мартин Кэмпбелл
В ролях: Райан Рейнольдс, Блэйк Лайвли, Питер Сарсгаард, Марк Стронг, Темуэра Моррисон, Дженна Крэйг, Джон Тенни, Майк Дойл, Гэтлин Гриффит, Николас Джендл, Анджела Бассетт, Тим Роббинс, Джей О. Сэндерс, Таика Вайтити, Дилан Джеймс, Лиэнн Кохрэн, Джефф Вульф, Лена Кларк, Дженна Крэйг, Дек Андерсон, Грифф Ферст, Гаррет Хайнс, Ричи Монтгомери, Марсела Дуарте Фонсека, Дуглас М. Гриффин, Армандо Ледюк, Кеннет Браун мл., Сайлэс Купер, Дэйн Родс, Мелани Хеберт, ЛаТоня Нортон
Бюджет: $200 000 000
Сборы в США: $116 601 172
Сборы в России: $4 842 385
Сборы в мире: $219 901 172

Мировая премьера: 14 июня 2011
Релиз на DVD: 20 октября 2011, «CP-Digital»
Релиз на Blu-ray: 20 октября 2011, «CP-Digital»
Описание: Во Вселенной, столь же бесконечной, сколь и загадочной, многие века существовал отряд воинов, обладающих огромной силой. Защитники мира и справедливости, их называют Корпус Зеленых Фонарей. Братство воинов, поклявшихся защищать межгалактический закон, где каждый из них носит кольцо, дарующее ему сверхспособности. Но когда новый враг по имени Параллакс угрожает нарушить равновесие во Вселенной, их судьба и судьба Земли оказывается в руках новобранца, первого человека в истории отряда - Хэла Джордана.
Хэл - дерзкий и талантливый летчик-испытатель, но Зеленые Фонари не испытывают доверия и уважения к человечеству, ведь людям до этого ни разу не удалось обуздать безграничную силу кольца. Но Хэл - как недостающий кусочек мозаики, и вместе с решимостью и силой воли он обладает тем, чего не было ни у одного звездного воителя, - человечностью. Если при поддержке напарника и подруги детства Кэрол Феррис (Блейк Лайвли) Хэл сможет быстро научиться управлять мощью кольца и найдет мужество преодолеть свои страхи, он сможет не только доказать, что он является ключом к победе над Параллаксом… но и станет величайшим Зеленым Фонарем из всех.
Изображение 6.1/10 (35,781 users)
Изображение (6.206)
MPAA: Изображение - Детям до 13 лет просмотр не желателен

Качество: BDRip 1080p R5
Формат: MKV
Видео: MPEG-4 AVC, 11.3 Мбит/с, 1920x800, 23.976 кадр/с
Аудио: Русский (AC3, 6 ch, 448 Кбит/с) 48 kHz / Русский (DTS, 6 ch, 1536 Кбит/с) 48 kHz / Aнглийский (DTS, 6 ch, 1536 Кбит/с) 48 kHz
Субтитры: Русские (форсированные на не переведённые места), русские (полные от voronine), aнглийские
"Знаете ли Вы, что..."
  • Зелёный Фонарь был создан автором Биллом Фингером и художником Мартином Ноделлом в All-American Comics #16 (июль 1940).
  • Главными претендентами на роль Зеленого Фонаря, помимо Райана Рейнольдса, были Брэдли Купер и Джастин Тимберлейк. Главная роль могла также достаться Сэму Уортингтону, Крису Пайну и Джареду Лето.
  • Синестро (Марк Стронг) могли сыграть Хьюго Уивинг, Джеки Эрл Хейли и Джеффри Раш.
Свернуть
"Скриншоты"

Изображение
Изображение
Изображение
Свернуть
MediaInfo
General

Complete name : /home/hd2/budweiser/torrents/downloading/Zelenyi.fonar.Rasshirenaja.versija.2011.x264.BDRip.1080p.Budweiser.mkv
Format : Matroska
File size : 12.7 GiB
Duration : 2h 3mn
Overall bit rate : 14.8 Mbps
Movie name : <BUDWEISER>
Encoded date : UTC 2011-10-07 15:16:01
Writing application : mkvmerge v4.2.0 ('No Talking') built on Aug 1 2010 22:50:30
Writing library : libebml v1.0.0 + libmatroska v1.0.0

Video
ID : 1
Format : AVC
Format/Info : Advanced Video Codec
Format profile : High@L4.1
Format settings, CABAC : Yes
Format settings, ReFrames : 5 frames
Codec ID : V_MPEG4/ISO/AVC
Duration : 2h 3mn
Bit rate : 11.3 Mbps
Width : 1 920 pixels
Height : 800 pixels
Display aspect ratio : 2.40:1
Frame rate : 23.976 fps
Color space : YUV
Chroma subsampling : 4:2:0
Bit depth : 8 bits
Scan type : Progressive
Bits/(Pixel*Frame) : 0.307
Stream size : 9.50 GiB (75%)
Writing library : x264 core 118 r2085 8a62835
Encoding settings : cabac=1 / ref=5 / deblock=1:-3:-3 / analyse=0x3:0x133 / me=umh / subme=11 / psy=1 / psy_rd=0.90:0.10 / mixed_ref=1 / me_range=64 / chroma_me=1 / trellis=2 / 8x8dct=1 / cqm=0 / deadzone=6,4 / fast_pskip=0 / chroma_qp_offset=-3 / threads=12 / sliced_threads=0 / nr=0 / decimate=0 / interlaced=0 / bluray_compat=0 / constrained_intra=0 / bframes=10 / b_pyramid=2 / b_adapt=2 / b_bias=0 / direct=3 / weightb=1 / open_gop=0 / weightp=2 / keyint=240 / keyint_min=2 / scenecut=40 / intra_refresh=0 / rc=2pass / mbtree=0 / bitrate=11290 / ratetol=1.0 / qcomp=0.80 / qpmin=0 / qpmax=69 / qpstep=4 / cplxblur=20.0 / qblur=0.5 / ip_ratio=1.40 / pb_ratio=1.30 / aq=2:1.00
Language : English

Audio #1
ID : 2
Format : AC-3
Format/Info : Audio Coding 3
Mode extension : CM (complete main)
Codec ID : A_AC3
Duration : 2h 3mn
Bit rate mode : Constant
Bit rate : 448 Kbps
Channel(s) : 6 channels
Channel positions : Front: L C R, Side: L R, LFE
Sampling rate : 48.0 KHz
Bit depth : 16 bits
Compression mode : Lossy
Stream size : 396 MiB (3%)
Title : AC3 (Dub.)
Language : Russian

Audio #2
ID : 3
Format : DTS
Format/Info : Digital Theater Systems
Codec ID : A_DTS
Duration : 2h 3mn
Bit rate mode : Constant
Bit rate : 1 510 Kbps
Channel(s) : 6 channels
Channel positions : Front: L C R, Side: L R, LFE
Sampling rate : 48.0 KHz
Bit depth : 24 bits
Compression mode : Lossy
Stream size : 1.30 GiB (10%)
Title : DTS (zamez)
Language : Russian

Audio #3
ID : 4
Format : DTS
Format/Info : Digital Theater Systems
Codec ID : A_DTS
Duration : 2h 3mn
Bit rate mode : Constant
Bit rate : 1 510 Kbps
Channel(s) : 6 channels
Channel positions : Front: L C R, Side: L R, LFE
Sampling rate : 48.0 KHz
Bit depth : 24 bits
Compression mode : Lossy
Stream size : 1.30 GiB (10%)
Title : DTS
Language : English

Text #1
ID : 5
Format : UTF-8
Codec ID : S_TEXT/UTF8
Codec ID/Info : UTF-8 Plain Text
Title : Forced
Language : Russian

Text #2
ID : 6
Format : UTF-8
Codec ID : S_TEXT/UTF8
Codec ID/Info : UTF-8 Plain Text
Title : Full
Language : Russian

Text #3
ID : 7
Format : UTF-8
Codec ID : S_TEXT/UTF8
Codec ID/Info : UTF-8 Plain Text
Language : English
Свернуть


Последний раз редактировалось Izer 2011-10-09 12:59, всего редактировалось 1 раз.
Не в сети
Профиль  
 Добавлено: 2011-10-09 12:57 (спустя 1 час 22 минуты)
Ацкий сотона
Аватара пользователя
Стаж: 8 лет 11 месяцев
Возраст: 28
Сообщений: 819
Спасибок: 12
Лайков: 1
Ну вот и 1080р подтянулось , забираю , релизеру - спасибо :bra_vo:
_________________
ИзображениеИзображениеИзображениеИзображениеИзображение
Не в сети
Профиль  
 Добавлено: 2011-10-10 09:11 (спустя 20 часов)
Аватара пользователя
Стаж: 8 лет 11 месяцев
Возраст: 27
Сообщений: 721
Спасибок: 5528
Лайков: 1
Русский (DTS, 6 ch, 1536 Кбит/с) 48 kHz на дубляж?))
_________________
Изображение
Не в сети
Профиль  
 Добавлено: 2011-10-11 18:39 (спустя 1 день 9 часов)
Аватара пользователя
Стаж: 8 лет 11 месяцев
Возраст: 36
Сообщений: 440
Спасибок: 5166

E1ectro_style:

Русский (DTS, 6 ch, 1536 Кбит/с) 48 kHz на дубляж?))

Audio #2
ID : 3
Format : DTS
Format/Info : Digital Theater Systems
Codec ID : A_DTS
Duration : 2h 3mn
Bit rate mode : Constant
Bit rate : 1 510 Kbps
Channel(s) : 6 channels
Channel positions : Front: L C R, Side: L R, LFE
Sampling rate : 48.0 KHz
Bit depth : 24 bits
Compression mode : Lossy
Stream size : 1.30 GiB (10%)
Title : DTS (zamez)
Language : Russian
Не в сети
Профиль  
 Добавлено: 2011-10-15 13:45 (спустя 3 дня)
Руководитель релиз-группы
Аватара пользователя
Стаж: 8 лет 6 месяцев
Возраст: 25
Сообщений: 7578
Спасибок: 51914
Лайков: 14
А что кстати не прилеплен?
Не в сети
Профиль  
 Добавлено: 2013-11-03 21:24 (спустя 2 года)
Аватара пользователя
Стаж: 4 года 5 месяцев
Возраст: 25
Сообщений: 61
Лайков: 2
встаньте на раздачу пожалуйста)))за ранее спасибо)))
_________________
потапов
Не в сети
Профиль  
Начать новую темуОтветить на тему  [ Сообщений: 6 ] 
Вы не можете начинать темы
Вы не можете отвечать на сообщения
Вы не можете редактировать свои сообщения
Вы не можете удалять свои сообщения