Правила форума

  • В этом разделе создание новых тем Запрещено.
  • Для создания новых тем пользуйтесь Корневым разделом DVD и HD фильмы.
Начать новую темуОтветить на тему  [ Сообщений: 2 ] 
Торрент файл
Размер: 11.83 GB • Зарегистрирован: 5 лет 8 месяцев • Статус: Проверено
Скачан: 197 раз • Желающих скачать: 0 • Поблагодарили: 29 раз
 Раздают: 0  |  0 KB/s  ]   Качают: 0  |  0 KB/s  ] 
 Полного источника не было 3 года 2 месяца 
Сообщения
 Добавлено: 2011-04-02 09:40
Модератор
Аватара пользователя
Стаж: 8 лет 1 месяц
Возраст: 20
Сообщений: 32130
Спасибок: 98568
Лайков: 80
Зелёный Шершень / The Green Hornet
«Героям закон не писан!»

Изображение
Год выпуска: 2011
Страна: Изображение США
Жанр: боевик, комедия, криминал
Перевод: Оригинальный, Субтитры, Профессиональный (полное дублирование) [лицензия]
Продолжительность: 01:58:53

Режиссер: Мишель Гондри
Сценарий: Сет Роген, Ивэн Голдберг, Джордж В. Трендл
Продюсер: Нил Х. Мориц, Раффи Эдлан, Ивэн Голдберг
Оператор: Джон Шварцман
Композитор: Джеймс Ньютон Ховард
В ролях: Сет Роген, Джей Чоу, Кристоф Вальц, Кэмерон Диаз, Том Уилкинсон, Дэвид Харбор, Эдвард Джеймс Олмос, Джэми Харрис, Чад Коулмэн, Эдвард Ферлонг
Описание: Сын медиа-магната «прожигает» свою жизнь в вечных пьянках и бесчисленных случайных связях. Но после неожиданной смерти отца он наконец осознает бесцельность своего существования и решает все изменить. Вместе с другом они становятся супергероями, которые борются с преступностью ее же методами, совершенно не считаясь с законом...

Релиз: Изображение Раздача: Изображение

Изображение
Изображение
Доп. информация
Бюджет: $120 000 000
Сборы в мире: $220 805 961
Сборы в США: $92 405 961
Сборы в России: $6 561 777
Мировая премьера: 12 января 2011
Изображение Релиз на DVD: 3 марта 2011, «Columbia/Sony»
MediaInfo
Полное имя : Зелёный Шершень (2011) BDRip [1080p].mkv
Формат : Matroska
Размер файла : 11,8 Гбайт
Продолжительность : 1 ч. 59 м.
Общий поток : 14,2 Мбит/сек
Название фильма : Зелёный Шершень / The Green Hornet (2011)
Дата кодирования : UTC 2011-04-01 19:26:26
Программа кодирования : mkvmerge v4.6.0 ('Still Crazy After All These Years') сборка от Mar 10 2011 02:50:32
Библиотека кодирования : libebml v1.2.0 + libmatroska v1.1.0

Видео
Идентификатор : 1
Формат : AVC
Формат/Информация : Advanced Video Codec
Профиль формата : High@L4.1
Параметр CABAC формата : Да
Параметр ReFrames формата : 5 кадры
Идентификатор кодека : V_MPEG4/ISO/AVC
Продолжительность : 1 ч. 59 м.
Битрейт : 12,4 Мбит/сек
Ширина : 1920 пикс.
Высота : 800 пикс.
Соотношение сторон : 2,40:1
Частота кадров : 23,976 кадр/сек
Цветовое пространство : YUV
Подвыборка цветности : 4:2:0
Битовая глубина : 8 бит
Тип развёртки : Прогрессивная
Бит/(Пиксели*Кадры) : 0.335
Размер потока : 10,0 Гбайт (85%)
Заголовок : The.Green.Hornet.2011.D.BDRip.1080p-CHD
Библиотека кодирования : x264 core 114 r1924 08d04a4
Настройки программы : cabac=1 / ref=5 / deblock=1:-3:-3 / analyse=0x3:0x113 / me=umh / subme=10 / psy=1 / psy_rd=1.05:0.10 / mixed_ref=1 / me_range=48 / chroma_me=1 / trellis=2 / 8x8dct=1 / cqm=2 / deadzone=21,11 / fast_pskip=0 / chroma_qp_offset=-2 / threads=12 / sliced_threads=0 / nr=0 / decimate=1 / interlaced=0 / constrained_intra=0 / bframes=6 / b_pyramid=2 / b_adapt=2 / b_bias=0 / direct=3 / weightb=1 / open_gop=0 / weightp=2 / keyint=250 / keyint_min=23 / scenecut=40 / intra_refresh=0 / rc_lookahead=60 / rc=2pass / mbtree=1 / bitrate=12350 / ratetol=1.0 / qcomp=0.70 / qpmin=1 / qpmax=63 / qpstep=4 / cplxblur=20.0 / qblur=0.5 / vbv_maxrate=40000 / vbv_bufsize=30000 / nal_hrd=none / ip_ratio=1.40 / aq=1:0.80
Язык : English

Аудио #1
Идентификатор : 2
Формат : AC-3
Формат/Информация : Audio Coding 3
Расширение режима : CM (complete main)
Идентификатор кодека : A_AC3
Продолжительность : 1 ч. 59 м.
Вид битрейта : Постоянный
Битрейт : 384 Кбит/сек
Канал(ы) : 6 канала(ов)
Расположение каналов : Front: L C R, Side: L R, LFE
Частота : 48,0 КГц
Битовая глубина : 16 бит
Метод сжатия : С потерями
Задержка видео : 1 с. 514 мс.
Размер потока : 327 Мбайт (3%)
Заголовок : AC3 5.1 @ 384 kb/s [Russian DUB R5]
Язык : Russian

Аудио #2
Идентификатор : 3
Формат : DTS
Формат/Информация : Digital Theater Systems
Идентификатор кодека : A_DTS
Продолжительность : 1 ч. 59 м.
Вид битрейта : Постоянный
Битрейт : 1510 Кбит/сек
Канал(ы) : 6 канала(ов)
Расположение каналов : Front: L C R, Side: L R, LFE
Частота : 48,0 КГц
Битовая глубина : 24 бит
Метод сжатия : С потерями
Размер потока : 1,26 Гбайт (11%)
Заголовок : DTS 5.1 @ 1510 kb/s [English]
Язык : English

Текст #1
Идентификатор : 4
Формат : UTF-8
Идентификатор кодека : S_TEXT/UTF8
Идентификатор кодека/Информация : UTF-8 Plain Text
Заголовок : Russian [forced]
Язык : Russian

Текст #2
Идентификатор : 5
Формат : UTF-8
Идентификатор кодека : S_TEXT/UTF8
Идентификатор кодека/Информация : UTF-8 Plain Text
Заголовок : English
Язык : English
Свернуть
Свернуть

MPAA: Изображение
Качество: BDRip 1080p R5
Формат: MKV
Видео: AVC, 1920x800, 23,976 fps, ~12.4 mb/s
Аудио №1: Изображение English 48 kHz, DTS, 3/2 (L,C,R,l,r) + LFE ch, ~1510.00 kbps
Аудио №2: Изображение Russian 48 kHz, AC3, ~384.00 kbps |Дубляж|
Субтитры: Изображение English, Изображение Russian [forsed]

Знаете ли Вы, что...
  • Для роли в ленте актер Сет Роген похудел на пятнадцать килограммов.
  • В 2008 году планировалось, что режиссером фильма станет Стивен Чоу. Он же думал исполнить роль помощника главного персонажа – Като.
  • В свое время на роль ведущего злодея в фильме пробовался Николас Кейдж.
  • Среди рисунков Като можно заметить портрет Брюса Ли. Именно Брюс Ли играл роль Като в сериале «Зеленый Шершень» 1966 года.
Свернуть
Скриншоты
Изображение
Изображение
Изображение
Изображение
Изображение
Изображение
Свернуть
Не в сети
Профиль  
 Добавлено: 2011-04-04 20:51 (спустя 2 дня 11 часов)
Аватара пользователя
Стаж: 8 лет 3 месяца
Сообщений: 231
Спасибок: 29
Эх и дрянь, не ожидал...
Не в сети
Профиль  
Начать новую темуОтветить на тему  [ Сообщений: 2 ] 
Вы не можете начинать темы
Вы не можете отвечать на сообщения
Вы не можете редактировать свои сообщения
Вы не можете удалять свои сообщения