Правила форума

  • В этом разделе создание новых тем Запрещено.
  • Для создания новых тем пользуйтесь Корневым разделом DVD и HD фильмы.
Начать новую темуОтветить на тему  [ Сообщений: 4 ] 
Торрент файл
Размер: 10.18 GB • Зарегистрирован: 1 год 2 месяца • Статус: Проверено
Скачан: 436 раз • Желающих скачать: 0 • Поблагодарили: 100 раз
 Раздают: 1  |  0 KB/s  ]   Качают: 0  |  0 KB/s  ] 
Сообщения
 Добавлено: 2015-09-22 22:43
DVD Release Group
Аватара пользователя
Стаж: 7 лет 1 месяц
Сообщений: 3569
Спасибок: 247662
Лайков: 1020
Земля будущего

Tomorrowland


Изображение


Год выпуска: 2015
Страна: США
Жанр: Фантастика, боевик, детектив, приключения
Продолжительность: 02:10:19
Перевод: Профессиональный (полное дублирование)
Режиссер: Брэд Бёрд
В ролях: Джордж Клуни, Бритт Робертсон, Хью Лори, Рэффи Кэссиди, Тим МакГроу, Кэтрин Хан, Кигэн-Майкл Ки, Кристофер Бауэр, Томас Робинсон, Пирс Гэнон
Описание: Когда в руки к молодой девушке, жаждущей новых приключений, попадает загадочный предмет, открывающий доступ в параллельную реальность, она вынуждена обратиться за помощью к циничному гению-изобретателю Фрэнку. Кейси должна убедить бывшего вундеркинда раскрыть ей тайну загадочного места, находящегося вне привычной реальности, известного как Земля будущего, и убедить Фрэнка вернуться туда, откуда его однажды изгнали…
Изображение
Sample:
http://sendfile.su/1156974
Качество: BDRip 1080p
Формат: MKV
Видео кодек: H.264
Аудио кодек: AC3, DTS
Видео: 1920x872 23.98fps 9317kbps
Аудио:
Аудио Rus: AC3 48kHz 6ch 384Kbps
Аудио Eng: DTS 48kHz 6ch 1510Kbps
"MediaInfo"
Формат : Matroska
Версия формата : Version 4 / Version 2
Размер файла : 10,2 Гбайт
Продолжительность : 2 ч. 10 м.
Общий поток : 11,2 Мбит/сек
Дата кодирования : UTC 2015-09-22 17:13:09
Программа кодирования : mkvmerge v8.3.0 ('Over the Horizon') 32bit
Библиотека кодирования : libebml v1.3.1 + libmatroska v1.4.2

Видео
Идентификатор : 1
Формат : AVC
Формат/Информация : Advanced Video Codec
Профиль формата : High@L4.1
Параметр CABAC формата : Да
Параметр ReFrames формата : 4 кадра
Идентификатор кодека : V_MPEG4/ISO/AVC
Продолжительность : 2 ч. 10 м.
Битрейт : 9317 Кбит/сек
Ширина : 1920 пикселей
Высота : 872 пикселя
Соотношение сторон : 2,2:1
Режим частоты кадров : Постоянный
Частота кадров : 23,976 кадра/сек
Цветовое пространство : YUV
Субдискретизация насыщенности : 4:2:0
Битовая глубина : 8 бит
Тип развёртки : Прогрессивная
Бит/(Пиксели*Кадры) : 0.232
Размер потока : 8,26 Гбайт (81%)
Библиотека кодирования : x264 core 148 r2597 e86f3a1
Настройки программы : cabac=1 / ref=4 / deblock=1:0:0 / analyse=0x3:0x133 / me=umh / subme=7 / psy=1 / psy_rd=1.00:0.00 / mixed_ref=1 / me_range=16 / chroma_me=1 / trellis=1 / 8x8dct=1 / cqm=0 / deadzone=21,11 / fast_pskip=0 / chroma_qp_offset=-2 / threads=27 / lookahead_threads=4 / sliced_threads=0 / nr=0 / decimate=1 / interlaced=0 / bluray_compat=0 / constrained_intra=0 / bframes=3 / b_pyramid=2 / b_adapt=1 / b_bias=0 / direct=1 / weightb=1 / open_gop=0 / weightp=2 / keyint=250 / keyint_min=23 / scenecut=40 / intra_refresh=0 / rc_lookahead=40 / rc=2pass / mbtree=1 / bitrate=9317 / ratetol=1.0 / qcomp=0.60 / qpmin=0 / qpmax=69 / qpstep=4 / cplxblur=20.0 / qblur=0.5 / ip_ratio=1.40 / aq=1:1.00
Язык : English
Default : Да
Forced : Нет

Аудио #1
Идентификатор : 2
Формат : AC-3
Формат/Информация : Audio Coding 3
Расширение режима : CM (complete main)
Параметр Endianness формата : Big
Идентификатор кодека : A_AC3
Продолжительность : 2 ч. 10 м.
Вид битрейта : Постоянный
Битрейт : 384 Кбит/сек
Каналы : 6 каналов
Расположение каналов : Front: L C R, Side: L R, LFE
Частота : 48,0 КГц
Битовая глубина : 16 бит
Метод сжатия : С потерями
Размер потока : 357 Мбайт (3%)
Язык : Russian
Default : Да
Forced : Нет

Аудио #2
Идентификатор : 3
Формат : DTS
Формат/Информация : Digital Theater Systems
Режим : 16
Параметр Endianness формата : Big
Идентификатор кодека : A_DTS
Продолжительность : 2 ч. 10 м.
Вид битрейта : Постоянный
Битрейт : 1509 Кбит/сек
Каналы : 6 каналов
Расположение каналов : Front: L C R, Side: L R, LFE
Частота : 48,0 КГц
Битовая глубина : 24 бит
Метод сжатия : С потерями
Размер потока : 1,37 Гбайт (13%)
Язык : English
Default : Нет
Forced : Нет

Меню
00:00:00.000 : en:00:00:00.000
00:16:12.013 : en:00:16:12.013
00:21:56.565 : en:00:21:56.565
00:28:52.189 : en:00:28:52.189
00:37:37.046 : en:00:37:37.046
00:46:35.418 : en:00:46:35.418
00:55:01.048 : en:00:55:01.048
01:11:48.471 : en:01:11:48.471
01:19:18.087 : en:01:19:18.087
01:26:45.033 : en:01:26:45.033
01:30:57.702 : en:01:30:57.702
01:38:05.296 : en:01:38:05.296
01:49:50.501 : en:01:49:50.501
01:56:11.298 : en:01:56:11.298
02:01:26.946 : en:02:01:26.946
Свернуть

"Скриншоты"
Изображение
Изображение
Изображение
Свернуть
 dVision нравится это.
Не в сети
Профиль  
 Добавлено: 2015-10-02 22:34 (спустя 9 дней)
Стаж: 7 лет 4 месяца
Сообщений: 16
Ходили в кино, не досидели до конца. Такого унылого фильма я давно не смотрел. Изначально сложилось ошибочное мнение по рекламному ролику. Вообщем при нас еще 4 человека вышли из зала. Моя оценка 3 бала данному фильму
Не в сети
Профиль  
 Добавлено: 2015-10-03 20:18 (спустя 21 час)
Аватара пользователя
Стаж: 8 лет 1 месяц
Сообщений: 346
Спасибок: 85
Лайков: 7
Хороший фильм. Выгодно отличается от многих современных фильмов наличием сюжета и содержащимся в фильме смыслом, напоминанием об актуальных проблемах человечества. Отсутствие упора на экшн-сцены тоже несомненный плюс фильма. Ну и последним преимуществом назвал бы отсутствие намёка в концовке на ещё 2-3 фильма этой серии :)
Фильм немного наивен, но это и понятно, для детей же снято. Очень порадовало отсутствие слюнявых сцен. Моя оценка фильму 7/10. :co_ol:
_________________
Будь проще, и жить будет легче!
 Infortest нравится это.
Не в сети
Профиль  
 Добавлено: 2015-10-04 14:20 (спустя 18 часов)
Аватара пользователя
Стаж: 8 лет 2 месяца
Сообщений: 7
Очень скучный фильм.
Не в сети
Профиль  
Начать новую темуОтветить на тему  [ Сообщений: 4 ] 
Вы не можете начинать темы
Вы не можете отвечать на сообщения
Вы не можете редактировать свои сообщения
Вы не можете удалять свои сообщения