Правила форума

  • В этом разделе создание новых тем Запрещено.
  • Для создания новых тем пользуйтесь Корневым разделом DVD и HD фильмы.
Начать новую темуОтветить на тему  [ 1 сообщение ] 
Торрент файл
Размер: 10.44 GB • Зарегистрирован: 3 года 11 месяцев • Статус: Проверено
Скачан: 17 раз • Желающих скачать: 0 • Поблагодарили: 6 раз
 Раздают: 0  |  0 KB/s  ]   Качают: 0  |  0 KB/s  ] 
 Полного источника не было 2 года 5 месяцев 
Сообщения
 Добавлено: 2012-12-11 12:46
Аватара пользователя
Стаж: 5 лет 4 месяца
Возраст: 26
Сообщений: 1658
Спасибок: 45808
Лайков: 69
Земля мертвых / Land of the Dead


«Легендарный режиссер приносит Вам свой окончательный шедевр зомби».

Изображение
Год выпуска: 2005
Страна: ИзображениеИзображениеИзображение
Жанр: Ужасы
Продолжительность: 01:36:52
Перевод: Профессиональный (двухголосый) Tycoon-Studio
Профессиональный (полное дублирование) + MVO (на режиссёрские сцены)
Профессиональный (многоголосый, закадровый)
Авторский (Немахов Юрий)


Режиссёр: Джордж А. Ромеро

Сценарий: Джордж А. Ромеро

Продюсер: Марк Кантон, Берни Голдманн, Питер Грюнвольд

Оператор: Мирослав Бажак

Композитор: Райнхольд Хайль, Джонни Клаймек

Xудожник: Арвиндер Грюал, Дуглас Слэйтер, Алекс Кэвэна

В ролях: Саймон Бэйкер , Джон Легуизамо, Деннис Хоппер, Азия Ардженто, Роберт Джой, Юджин Кларк, Джоанн Болэнд, Тони Нэппо, Дженнифер Бакстер, Бойд Бэнкс, Джасмин Гельо


Описание: Ожившие мертвецы - зомби заполонили весь мир, и последние люди пытаются спастись, будучи заложниками ситуации в городе, окружённом неприступной стеной. Однако скоро и они окажутся под угрозой со стороны новых, более совершенных и более опасных существ...


Изображение



Сборы в России: $843 800.
Мировая премьера:18 июня 2005
Российский прокат:4 августа 2005


Качество: BDRip 1080p
Формат: Matroska
Видео: 1920x816 (2.353); 12000 Kbps; 23,976 fps
Аудио: Аудио: Russian / Dolby Digital Audio / 5.1 / 48 kHz / 448 kbps / DN -4dB / Двухголосый, Tycoon-Studio
Аудио: Russian / Dolby Digital Audio / 5.1 / 48 kHz / 448 kbps / DN -4dB / Дублированный + MVO
Аудио: Russian / Dolby Digital Audio / 5.1 / 48 kHz / 384 kbps / DN -4dB / Многоголосый
Аудио: Russian / Dolby Digital Audio / 5.1 / 48 kHz / 448 kbps / Авторский, Немахов Юрий
Аудио: English / DTS Audio / 5.1 / 48 kHz / 1536 kbps
Аудио: English / Dolby Digital Audio / 2.0 / 48 kHz / 192 kbps / DN -4dB / Commentary



MediaInfo
General
Unique ID : 202388811939591350332408632063533639433 (0x9842AAD64AD6B1BCA62CF1143A31E709)
Complete name : Land.of.the.Dead.2005.1080p.BluRay.4xRus.2xEng.HDCLUB-Skazhutin.mkv
Format : Matroska
Format version : Version 2
File size : 10.4 GiB
Duration : 1h 36mn
Overall bit rate : 15.4 Mbps
Movie name : Land of the Dead (2005) - Release for HDCLUB by Skazhutin
Encoded date : UTC 2012-06-18 07:54:50
Writing application : mkvmerge v5.6.0 ('Kenya Kane') built on May 27 2012 16:44:04
Writing library : libebml v1.2.3 + libmatroska v1.3.0
Attachment : Yes / Yes
Video
ID : 1
Format : AVC
Format/Info : Advanced Video Codec
Format profile : High@L4.1
Format settings, CABAC : Yes
Format settings, ReFrames : 5 frames
Codec ID : V_MPEG4/ISO/AVC
Duration : 1h 36mn
Bit rate : 12.0 Mbps
Width : 1 920 pixels
Height : 816 pixels
Display aspect ratio : 2.35:1
Frame rate : 23.976 fps
Color space : YUV
Chroma subsampling : 4:2:0
Bit depth : 8 bits
Scan type : Progressive
Bits/(Pixel*Frame) : 0.319
Stream size : 7.91 GiB (76%)
Title : Release for HDCLUB
Writing library : x264 core 125 r2200kMod 999b753
Encoding settings : cabac=1 / ref=5 / deblock=1:-3:-3 / analyse=0x3:0x113 / me=umh / subme=11 / psy=1 / fade_compensate=0.00 / psy_rd=1.10:0.05 / mixed_ref=1 / me_range=48 / chroma_me=1 / trellis=2 / 8x8dct=1 / cqm=0 / deadzone=21,11 / fast_pskip=0 / chroma_qp_offset=-3 / threads=12 / lookahead_threads=2 / sliced_threads=0 / nr=0 / decimate=0 / interlaced=0 / bluray_compat=0 / constrained_intra=0 / bframes=7 / b_pyramid=2 / b_adapt=2 / b_bias=0 / direct=3 / weightb=1 / open_gop=0 / weightp=2 / keyint=250 / keyint_min=23 / scenecut=40 / intra_refresh=0 / rc_lookahead=60 / rc=2pass / mbtree=1 / bitrate=12000 / ratetol=1.0 / qcomp=0.80 / qpmin=0 / qpmax=69 / qpstep=4 / cplxblur=20.0 / qblur=0.5 / vbv_maxrate=50000 / vbv_bufsize=62500 / nal_hrd=none / ip_ratio=1.10 / aq=1:1.00
Language : English
Default : Yes
Forced : No
Matrix coefficients : BT.709-5, BT.1361, IEC 61966-2-4 709, SMPTE RP177
Audio #1
ID : 2
Format : AC-3
Format/Info : Audio Coding 3
Mode extension : CM (complete main)
Format settings, Endianness : Big
Codec ID : A_AC3
Duration : 1h 36mn
Bit rate mode : Constant
Bit rate : 448 Kbps
Channel(s) : 6 channels
Channel positions : Front: L C R, Side: L R, LFE
Sampling rate : 48.0 KHz
Bit depth : 16 bits
Compression mode : Lossy
Stream size : 310 MiB (3%)
Title : AC3 5.1 @ 448 kbps - Двухголосый, Tycoon-Studio
Language : Russian
Default : Yes
Forced : No
Audio #2
ID : 3
Format : AC-3
Format/Info : Audio Coding 3
Mode extension : CM (complete main)
Format settings, Endianness : Big
Codec ID : A_AC3
Duration : 1h 36mn
Bit rate mode : Constant
Bit rate : 448 Kbps
Channel(s) : 6 channels
Channel positions : Front: L C R, Side: L R, LFE
Sampling rate : 48.0 KHz
Bit depth : 16 bits
Compression mode : Lossy
Stream size : 310 MiB (3%)
Title : AC3 5.1 @ 448 kbps - Дублированный
Language : Russian
Default : No
Forced : No
Audio #3
ID : 4
Format : AC-3
Format/Info : Audio Coding 3
Mode extension : CM (complete main)
Format settings, Endianness : Big
Codec ID : A_AC3
Duration : 1h 36mn
Bit rate mode : Constant
Bit rate : 384 Kbps
Channel(s) : 6 channels
Channel positions : Front: L C R, Side: L R, LFE
Sampling rate : 48.0 KHz
Bit depth : 16 bits
Compression mode : Lossy
Stream size : 266 MiB (2%)
Title : AC3 5.1 @ 384 kbps - Многоголосый
Language : Russian
Default : No
Forced : No
Audio #4
ID : 5
Format : AC-3
Format/Info : Audio Coding 3
Mode extension : CM (complete main)
Format settings, Endianness : Big
Codec ID : A_AC3
Duration : 1h 36mn
Bit rate mode : Constant
Bit rate : 448 Kbps
Channel(s) : 6 channels
Channel positions : Front: L C R, Side: L R, LFE
Sampling rate : 48.0 KHz
Bit depth : 16 bits
Compression mode : Lossy
Stream size : 310 MiB (3%)
Title : AC3 5.1 @ 448 kbps - Одноголосый, Ю. Немахов
Language : Russian
Default : No
Forced : No
Audio #5
ID : 6
Format : DTS
Format/Info : Digital Theater Systems
Codec ID : A_DTS
Duration : 1h 36mn
Bit rate mode : Constant
Bit rate : 1 510 Kbps
Channel(s) : 6 channels
Channel positions : Front: L C R, Side: L R, LFE
Sampling rate : 48.0 KHz
Bit depth : 24 bits
Compression mode : Lossy
Stream size : 1.02 GiB (10%)
Title : DTS 5.1 @ 1536 kbps
Language : English
Default : No
Forced : No
Audio #6
ID : 7
Format : AC-3
Format/Info : Audio Coding 3
Format profile : Dolby Digital
Mode extension : CM (complete main)
Format settings, Endianness : Big
Codec ID : A_AC3
Duration : 1h 36mn
Bit rate mode : Constant
Bit rate : 192 Kbps
Channel(s) : 2 channels
Channel positions : Front: L R
Sampling rate : 48.0 KHz
Bit depth : 16 bits
Compression mode : Lossy
Stream size : 133 MiB (1%)
Title : AC3 2.0 @ 192 kbps - Commentary
Language : English
Default : No
Forced : No
Text #1
ID : 8
Format : UTF-8
Codec ID : S_TEXT/UTF8
Codec ID/Info : UTF-8 Plain Text
Title : Tycoon
Language : Russian
Default : No
Forced : No
Text #2
ID : 9
Format : UTF-8
Codec ID : S_TEXT/UTF8
Codec ID/Info : UTF-8 Plain Text
Language : English
Default : No
Forced : No
Text #3
ID : 10
Format : UTF-8
Codec ID : S_TEXT/UTF8
Codec ID/Info : UTF-8 Plain Text
Title : SDH
Language : English
Default : No
Forced : No
Text #4
ID : 11
Format : UTF-8
Codec ID : S_TEXT/UTF8
Codec ID/Info : UTF-8 Plain Text
Language : French
Default : No
Forced : No
Text #5
ID : 12
Format : UTF-8
Codec ID : S_TEXT/UTF8
Codec ID/Info : UTF-8 Plain Text
Language : Spanish
Default : No
Forced : No
Menu
00:00:00.000 : en:Feeding on the Living
00:02:15.760 : en:Pretending to Be Alive
00:05:34.583 : en:Dead Reckoning
00:09:50.256 : en:Shop 'Til You Drop
00:16:51.677 : en:Fiddler's Green
00:19:28.208 : en:A World of Fences
00:22:41.276 : en:Taking Care of Business
00:25:51.882 : en:A New Kind of Game
00:32:53.846 : en:Access Denied
00:36:47.038 : en:Screaming Practice
00:40:24.547 : en:The One That Got Away
00:45:36.692 : en:Recon Mission
00:54:27.806 : en:"The Responsibility Is Mine"
00:59:17.345 : en:Crossing the River
01:03:04.488 : en:Working for the Man
01:08:51.585 : en:Back to the City
01:10:55.084 : en:Seeing How the Other Half Lives
01:16:44.850 : en:Surrounded By Stench
01:22:02.417 : en:Fill 'Er Up
01:27:53.977 : en:Same As Us
01:32:17.990 : en:End Titles

Свернуть

Трейлер
Свернуть

Скриншоты
Изображение
Изображение
Изображение
Изображение
Изображение
Свернуть
_________________
S.T.A.L.K.E.R.: Lost Alpha
Не в сети
Профиль  
Начать новую темуОтветить на тему  [ 1 сообщение ] 
Вы не можете начинать темы
Вы не можете отвечать на сообщения
Вы не можете редактировать свои сообщения
Вы не можете удалять свои сообщения