Правила форума

  • В этом разделе создание новых тем Запрещено.
  • Для создания новых тем пользуйтесь Корневым разделом DVD и HD фильмы.
Начать новую темуОтветить на тему  [ 1 сообщение ] 
Торрент файл
Размер: 2.48 GB • Зарегистрирован: 2 года 8 месяцев • Статус: T Временный релиз
Скачан: 12 раз • Желающих скачать: 0 • Поблагодарили: 7 раз
 Раздают: 0  |  0 KB/s  ]   Качают: 0  |  0 KB/s  ] 
 Полного источника не было 1 день 3 часа 
Сообщения
 Добавлено: 2014-03-15 13:36
Книголюб
Аватара пользователя
Стаж: 7 лет 2 месяца
Сообщений: 2823
Спасибок: 48828
Лайков: 73
Землянин
Earthling

Изображение


Год выпуска: 2010
Страна: США
Жанр: фантастика
Продолжительность: 01:45:16
Перевод: Профессиональный (двухголосый закадровый)

Режиссёр: Клэй Лайфорд
В ролях: Ребекка Спенс, Питер Грин, Уильям Кэтт, Дженнифер Сайпс, Саванна Сирс, Мэтт Социа, Амелия Тернер, Гарри Гоаз, Уильям Артур Дженкинс, Эллисон Латта
Описание: Однажды утром несколько человек просыпаются ото сна земной жизни и понимают, что на самом деле они инопланетяне в обличье хомо сапиенсов. Дилемма, перед которой оказываются «земляне», оставляет далеко позади гамлетовский вопрос, остаться ли им на Земле и жить чужими среди своих или попытаться вернуться домой.
Мировая премьера: 14 марта 2010
Изображение 4.371 76

Качество: WEB-DL 720p
Формат: MKV
Видео кодек: H.264
Аудио кодек: AC3 (Dolby Digital)
Видео: 1280x720 23.976fps 2 758 Kbps
Аудио #1: 48000Hz stereo 192kbps
MediaInfo
General
Unique ID : 200223471533069390538849571876282737207 (0x96A1A350004A09A187C5812AE5E6A237)
Complete name : K:\Torrent\Earthling .mkv
Format : Matroska
Format version : Version 4 / Version 2
File size : 2.48 GiB
Duration : 1h 50mn
Overall bit rate : 3 206 Kbps
Movie name : Release Group CINEMANIA
Encoded date : UTC 2014-03-13 22:06:42
Writing application : mkvmerge v6.8.0 ('Theme for Great Cities') 64bit built on Mar 2 2014 21:34:26
Writing library : libebml v1.3.0 + libmatroska v1.4.1

Video
ID : 1
Format : AVC
Format/Info : Advanced Video Codec
Format profile : High@L3.1
Format settings, CABAC : Yes
Format settings, ReFrames : 5 frames
Codec ID : V_MPEG4/ISO/AVC
Duration : 1h 50mn
Bit rate : 2 758 Kbps
Width : 1 280 pixels
Height : 720 pixels
Display aspect ratio : 16:9
Frame rate mode : Variable
Frame rate : 23.976 fps
Color space : YUV
Chroma subsampling : 4:2:0
Bit depth : 8 bits
Scan type : Progressive
Bits/(Pixel*Frame) : 0.125
Stream size : 2.13 GiB (86%)
Title : Release Group CINEMANIA
Default : Yes
Forced : No

Audio #1
ID : 2
Format : AC-3
Format/Info : Audio Coding 3
Mode extension : CM (complete main)
Codec ID : A_AC3
Duration : 1h 50mn
Bit rate mode : Constant
Bit rate : 192 Kbps
Channel(s) : 2 channels
Channel positions : Front: L R
Sampling rate : 48.0 KHz
Bit depth : 16 bits
Compression mode : Lossy
Stream size : 152 MiB (6%)
Title : Нтв+
Language : Russian
Default : Yes
Forced : Yes

Audio #2
ID : 3
Format : AC-3
Format/Info : Audio Coding 3
Mode extension : CM (complete main)
Codec ID : A_AC3
Duration : 1h 50mn
Bit rate mode : Constant
Bit rate : 192 Kbps
Channel(s) : 2 channels
Channel positions : Front: L R
Sampling rate : 48.0 KHz
Bit depth : 16 bits
Compression mode : Lossy
Stream size : 152 MiB (6%)
Language : English
Default : No
Forced : No


Свернуть

Скриншоты
Изображение
Изображение
Изображение
Свернуть
Не в сети
Профиль  
Начать новую темуОтветить на тему  [ 1 сообщение ] 
Вы не можете начинать темы
Вы не можете отвечать на сообщения
Вы не можете редактировать свои сообщения
Вы не можете удалять свои сообщения