Правила форума

  • В этом разделе создание новых тем Запрещено.
  • Для создания новых тем пользуйтесь Корневым разделом DVD и HD фильмы.
Начать новую темуОтветить на тему  [ Сообщений: 3 ] 
Торрент файл
Размер: 6.74 GB • Зарегистрирован: 3 года 9 месяцев • Статус: Проверено
Скачан: 9 раз • Желающих скачать: 0 • Поблагодарили: 5 раз
 Раздают: 0  |  0 KB/s  ]   Качают: 0  |  0 KB/s  ] 
 Полного источника не было 3 года 1 месяц 
Сообщения
 Добавлено: 2013-02-22 22:42
Аватара пользователя
Стаж: 8 лет 7 месяцев
Сообщений: 22
Спасибок: 7
Зло / Ondskan

Изображение


Год выпуска: 2003
Страна: Дания, Швеция (Moviola Film och Television AB)
Слоган: «It's time to take a stand.»
Жанр: драма
Продолжительность: 113 мин. / 01:53:25
Перевод: Профессиональный (двухголосый закадровый) + Оригинальная звуковая дорожка
Субтитры: Русские (вшитые), Английские (вшитые)

Режиссёр: Микаэль Хафстрём / Mikael Hafstrom
В ролях: Андреас Уилсон, Хенрик Лундстрем, Густаф Скарсгард, Линда Зиллиакус, Джеспер Сален, Филип Берг, Фредрик аф Трамп, Ричард Даниэльссон, Мартин Сване, Рустан Бломквист
Описание: Описание (DVD): Стокгольм, 50-е годы прошлого века. Отчим 16-летнего Эрика в "воспитательных" целях регулярно избивает своего пасынка, который в любой конфликтной ситуации тоже всегда готов пустить в ход кулаки. После очередной драки в школе Эрика отправляют в частную школу-интернат для детей состоятельных родителей, где учащиеся старших классов занимаются "воспитанием" младшего поколения.

Эрик противостоит всему миру, который, кажется, всеми силами пытается не дать ему добиться своей цели — ученой степени. Он не слушает ничьих советов, и окружающим это не нравится.

Альтернативное описание: Юный Эрик, красавец и атлет, живет с тихой интеллигентной матерью и садистом-отчимом, который его регулярно порет ремнем по поводу и без. Обиду и злость Эрик вымещает на улице, где ему нет равных в кулачных боях. После особо жестокой драки парня, несмотря на отличную успеваемость, выгоняют из школы с "волчьим билетом", и теперь ему дорога только в частный интернат. Туда его мать и отправляет, продав ради оплаты обучения чуть ли не все фамильные ценности. Интернат, куда попадает Эрик, находится в старинном поместье, и в нём учится чуть ли не вся золотая молодежь страны, здесь самые лучшие преподаватели и жесточайшая дисциплина, построенная на обычной дедовщине, возведенной в официальный статус. За драку с учеником старших классов следует немедленное отчисление, поэтому Эрику придется на время попридержать кулаки и проявить отнюдь не детскую стойкость, выдержку и силу духа, чтобы не вылететь из интерната и не потерять самоуважение.
Рейтинг MPAA: Рейтинг R (Подростки до 17 лет допускаются на фильм только в сопровождении одного из родителей)
Изображение Изображение

Качество: BDRip 720p
Контейнер: MKV
Видео кодек: V_MPEG4/ISO/AVC
Аудио кодек: A_DTS
Видео: AVC (NTSC) 1280x682 (1,877:1), 23.976 кадр/сек, 7000 кбит/сек
Аудио #1: Русский, DTS, 5.1 (L,C,R,ls,rs + LFE ch), 48 кГц, 16 бит, 755 кбит/сек [Профессиональный (двухголосый закадровый)]
Аудио #2: Шведский, DTS, 5.1 (L,C,R,ls,rs + LFE ch), 48 кГц, 16 бит, 755 кбит/сек [Оригинальная звуковая дорожка]
Субтитры: Русские (вшитые), Английские (вшитые)
MediaInfo
Общее
Уникальный идентификатор : 246767948228433935322734082176720443245 (0xB9A5C7304DE1CD958FE5EF794A86176D)
Полное имя : M:\Ondskan (2003) BDRip 720p.mkv
Формат : Matroska
Размер файла : 6,74 Гбайт
Продолжительность : 1 ч. 53 м.
Общий поток : 8511 Кбит/сек
Название фильма : Ondskan (2003) BDRip 720p | maks990
Дата кодирования : UTC 2011-06-16 19:20:24
Программа кодирования : mkvmerge v3.4.0 ('Rapunzel') сборка от May 15 2010 09:38:20
Библиотека кодирования : libebml v0.8.0 + libmatroska v0.9.0

Видео
Идентификатор : 1
Формат : AVC
Формат/Информация : Advanced Video Codec
Профиль формата : High@L4.1
Параметр CABAC формата : Да
Параметр ReFrames формата : 8 кадров
Идентификатор кодека : V_MPEG4/ISO/AVC
Продолжительность : 1 ч. 53 м.
Битрейт : 7000 Кбит/сек
Ширина : 1280 пикс.
Высота : 682 пикс.
Соотношение сторон : 1,877
Частота кадров : 23,976 кадр/сек
Цветовое пространство : YUV
Подвыборка цветности : 4:2:0
Битовая глубина : 8 бит
Тип развёртки : Прогрессивная
Бит/(Пиксели*Кадры) : 0.334
Размер потока : 5,41 Гбайт (80%)
Заголовок : Ondskan
Библиотека кодирования : x264 core 115 r1995 c1e60b9
Настройки программы : cabac=1 / ref=8 / deblock=1:-3:-3 / analyse=0x3:0x113 / me=umh / subme=10 / psy=1 / psy_rd=1.05:0.15 / mixed_ref=1 / me_range=32 / chroma_me=1 / trellis=2 / 8x8dct=1 / cqm=0 / deadzone=21,11 / fast_pskip=0 / chroma_qp_offset=-3 / threads=12 / sliced_threads=0 / nr=0 / decimate=0 / interlaced=0 / bluray_compat=0 / constrained_intra=0 / bframes=9 / b_pyramid=2 / b_adapt=2 / b_bias=0 / direct=3 / weightb=1 / open_gop=0 / weightp=2 / keyint=250 / keyint_min=23 / scenecut=40 / intra_refresh=0 / rc=2pass / mbtree=0 / bitrate=7000 / ratetol=1.0 / qcomp=0.60 / qpmin=0 / qpmax=51 / qpstep=4 / cplxblur=20.0 / qblur=0.5 / ip_ratio=1.10 / pb_ratio=1.10 / aq=2:0.60
Язык : Swedish
Основные цвета : BT.709-5, BT.1361, IEC 61966-2-4, SMPTE RP177
Характеристики трансфера : BT.709-5, BT.1361
Коэффициенты матрицы : BT.709-5, BT.1361, IEC 61966-2-4 709, SMPTE RP177

Аудио #1
Идентификатор : 2
Формат : DTS
Формат/Информация : Digital Theater Systems
Идентификатор кодека : A_DTS
Продолжительность : 1 ч. 53 м.
Вид битрейта : Постоянный
Битрейт : 755 Кбит/сек
Каналы : 6 каналов
Расположение каналов : Front: L C R, Side: L R, LFE
Частота : 48,0 КГц
Битовая глубина : 16 бит
Метод сжатия : С потерями
Размер потока : 612 Мбайт (9%)
Заголовок : DVO
Язык : Russian

Аудио #2
Идентификатор : 3
Формат : DTS
Формат/Информация : Digital Theater Systems
Идентификатор кодека : A_DTS
Продолжительность : 1 ч. 53 м.
Вид битрейта : Постоянный
Битрейт : 755 Кбит/сек
Каналы : 6 каналов
Расположение каналов : Front: L C R, Side: L R, LFE
Частота : 48,0 КГц
Битовая глубина : 16 бит
Метод сжатия : С потерями
Размер потока : 612 Мбайт (9%)
Заголовок : Original
Язык : Swedish

Текст #1
Идентификатор : 4
Формат : UTF-8
Идентификатор кодека : S_TEXT/UTF8
Идентификатор кодека/Информация : UTF-8 Plain Text
Язык : Russian

Текст #2
Идентификатор : 5
Формат : UTF-8
Идентификатор кодека : S_TEXT/UTF8
Идентификатор кодека/Информация : UTF-8 Plain Text
Язык : English
Свернуть

Скриншоты
Изображение
Изображение
Изображение
Изображение
Свернуть


Последний раз редактировалось purpur 2013-02-24 23:19, всего редактировалось 2 раз(а).
Не в сети
Профиль  
 Добавлено: 2013-02-23 09:35 (спустя 10 часов)
Модератор
Аватара пользователя
Стаж: 8 лет 11 месяцев
Сообщений: 516
Спасибок: 26888
Лайков: 1
Внимание: Для DVD и HD-разделов необходимы развернутые технические данные:
Для HD: Отчет MediaInfo или BDInfo (под спойлером)
Инструкция: [Инструкция] Как получить информацию по видео файлу.
Не в сети
Профиль  
 Добавлено: 2013-02-23 12:18 (спустя 2 часа 43 минуты)
Аватара пользователя
Стаж: 8 лет 7 месяцев
Сообщений: 22
Спасибок: 7
Исправил
Не в сети
Профиль  
Начать новую темуОтветить на тему  [ Сообщений: 3 ] 
Вы не можете начинать темы
Вы не можете отвечать на сообщения
Вы не можете редактировать свои сообщения
Вы не можете удалять свои сообщения