Правила форума

  • В этом разделе создание новых тем Запрещено.
  • Для создания новых тем пользуйтесь Корневым разделом DVD и HD фильмы.
Начать новую темуОтветить на тему  [ 1 сообщение ] 
Торрент файл
Размер: 4.3 GB • Зарегистрирован: 3 года 4 месяца • Статус: Проверено
Скачан: 154 раза • Желающих скачать: 0 • Поблагодарили: 45 раз
 Раздают: 1  |  0 KB/s  ]   Качают: 0  |  0 KB/s  ] 
Сообщения
 Добавлено: 2013-07-16 23:08
Руководитель релиз-группы
Аватара пользователя
Стаж: 9 лет 1 месяц
Возраст: 28
Сообщений: 4244
Спасибок: 31998
Лайков: 32
Изображение
Зловещие мертвецы: Черная книга
Evil Dead


«Уже не остановить!»


Год выпуска | 2013
Страна | США
Жанр | ужасы
Продолжительность | 01:31:18
Перевод | Профессиональный (полное дублирование) ∙ Оригинальный ∙ Субтитры
Режиссер | Федерико Альварес
Сценарий | Федерико Альварес ∙ Родольфо Саягес ∙ Сэм Рэйми
Продюсер | Брюс Кэмпбелл ∙ Сэм Рэйми ∙ Роберт Дж. Тейперт ∙ Сэлли Кэмпбелл ∙ Джозеф Дрэйк
Оператор | Аарон Мортон
Композитор | Роке Баньос

В ролях | Джейн Леви (Mia) ∙ Шайло Фернандес (David) ∙ Лу Тэйлор Пуччи (Eric) ∙ Джессика Лукас (Olivia) ∙ Элизабет Блэкмор (Natalie) ∙ Феникс Коннолли (Teenager) ∙ Джим МакЛарти (Harold) ∙ Сиан Дэвис (Old Woman) ∙ Стефен Баттерворф (Toothless Redneck) ∙ Карл Виллетц (Long Haired Redneck) ∙ Рендал Уилсон (Abomination Mia) ∙ Руперт Дегас (Demon, озвучка) и др.
Дублёры | Наталья Терешкова (Mia) ∙ Евгений Вальц (David) ∙ Иван Жарков (Eric) ∙ Вероника Саркисова (Olivia) ∙ Василиса Воронина (Natalie) ∙ Анастасия Жаркова (Teenager) и др.
Описание | Молодая женщина Миа, пытающаяся избавиться от наркозависимости, отправляется вместе с братом и группой друзей в удалённую хижину, где они открывают Книгу мёртвых, что приводит к опасности и ужасу.
Релиз | ИзображениеРаздача | Изображение

kinopoisk.ru | 6.398 (9050)
Бюджет | $17 000 000
Сборы в США | $54 239 856
Сборы в России | $5 850 548
Сборы в мире | $97 454 981
Мировая премьера | 8 марта 2013
Релиз на DVD | 13 августа 2013 ∙ «Columbia/Sony»
Релиз на Blu-Ray | 13 августа 2013 ∙ «Columbia/Sony»
Знаете ли Вы, что...
  • В сцене, где разорванное ожерелье находят у хижины, можно заметить, что оно сложено в форме черепа.
  • По словам супервайзера по физическим спецэффектам Джейсона Дьюри, на съемках фильма было израсходовано около 25 000 литров бутафорской крови и около 300 литров рвотной жидкости.
  • Фильм стал полнометражным дебютом Федерико Альвареса. Для режиссера проект стал осуществлением детской мечты. Ему предоставили неограниченную свободу и позволили снимать свой фильм так, как он сочтет нужным.
  • Чтобы сохранить классическую атмосферу 1981 года, Альварес пытался использовать по большей части физические спецэффекты, воздерживаясь от компьютерной графики там, где было возможно.
  • Альварес поразил продюсеров своим подходом к съемке и любовью к различным эффектам. Режиссер был убежден, что с помощью необычных ракурсов съемки и нестандартного передвижения камеры он сможет добиться требуемого накала страстей и аутентичности.
  • Для съемки сцен с одержимыми демонами героями режиссер пригласил профессионального хореографа. Тот помог актерам двигаться по возможности более реалистично.
  • Элизабет Блэкмор, играющая роль Натали, первой прошла пробы на роль.
  • Для съемок фильма были построены две идентичные хижины. Первая хижина была построена в настоящем лесу. Точную копию соорудили в павильоне, поскольку сложный пластический грим нельзя было снимать на натуре.
  • Для одной из героинь команда специалистов по пластическому гриму приготовила пять различных ручных протезов, которые демонстрировали разные стадии ее преображения.
  • Изначально роль Мии должна была исполнять Лили Коллинз, однако она выбыла из проекта из-за несовпадения рабочих графиков. Ходили слухи, что капризная актриса просто не захотела портить свою фильмографию ролью наркоманки.
  • Джиллиан Джейкобс пробовалась на роль Мии, но проиграла Лили Коллинз. Позже Коллинз покинула проект, и в итоге роль отошла Джейн Леви.
  • Агнес Бракнер и Тора Бёрч пробовались на роль Натали.
  • Джерни Смоллетт пробовалась на роль Оливии.
  • Брюсу Кэмпбеллу предлагали эпизодическую роль в этом фильме, но он отказался.
  • Если сложить первые буквы имен главных героев, то получится слово «demon» («демон»): Дэвид (David), Эрик (Eric), Мия (Mia), Оливия (Olivia) и Натали (Natalie).
  • В одной сцене показывают карты, разложенные на столе. Они выложены в том же порядке, как и в оригинальном фильме «Зловещие мертвецы» (1981).
Свернуть

Качество | BDRip 720p
Контейнер | Matroska
Видео | AVC ∙ 1280x536 (2.40:1) ∙ 4266 kbps ∙ 23.976 fps ∙ 0.259 bit/pixel
Аудио #1 | AC3 ∙ 640 kbps ∙ CBR ∙ 6 channels ∙ 16 bit /RUS/
Аудио #2 | DTS ∙ 1510 kbps ∙ CBR ∙ 6 channels ∙ 24 bit /ENG/
Аудио #3 | AC3 ∙ 192 kbps ∙ CBR ∙ 2 channels ∙ 16 bit /COMM/

MediaInfo
General
Unique ID : 195536748848179325982511966152175063269 (0x931B020B34A080E6A57B52538B2310E5)
Complete name : I:\films\Evil.Dead.2013.BDRip.720p.mkv
Format : Matroska
Format version : Version 2
File size : 4.30 GiB
Duration : 1h 31mn
Overall bit rate : 6 742 Kbps
Movie name : Evil Dead (2013) - Release for HDCLUB
Encoded date : UTC 2013-07-15 23:05:34
Writing application : mkvmerge v3.4.0 ('Rapunzel') built on May 15 2010 09:38:20
Writing library : libebml v0.8.0 + libmatroska v0.9.0

Video
ID : 1
Format : AVC
Format/Info : Advanced Video Codec
Format profile : High@L4.1
Format settings, CABAC : Yes
Format settings, ReFrames : 12 frames
Codec ID : V_MPEG4/ISO/AVC
Duration : 1h 31mn
Bit rate : 4 266 Kbps
Width : 1 280 pixels
Height : 536 pixels
Display aspect ratio : 2.40:1
Frame rate : 23.976 fps
Color space : YUV
Chroma subsampling : 4:2:0
Bit depth : 8 bits
Scan type : Progressive
Bits/(Pixel*Frame) : 0.259
Stream size : 2.72 GiB (63%)
Title : Evil Dead (2013) - Release for HDCLUB
Writing library : x264 core 133 r2334kMod a3ac64b
Encoding settings : cabac=1 / ref=12 / deblock=1:-3:-3 / analyse=0x3:0x113 / me=umh / subme=10 / psy=1 / fade_compensate=0.00 / psy_rd=1.10:0.00 / mixed_ref=1 / me_range=16 / chroma_me=1 / trellis=2 / 8x8dct=1 / cqm=0 / deadzone=21,11 / fast_pskip=0 / chroma_qp_offset=-2 / threads=3 / lookahead_threads=1 / sliced_threads=0 / nr=0 / decimate=0 / interlaced=0 / bluray_compat=0 / constrained_intra=0 / bframes=8 / b_pyramid=2 / b_adapt=2 / b_bias=0 / direct=3 / weightb=1 / open_gop=0 / weightp=2 / keyint=250 / keyint_min=23 / scenecut=40 / intra_refresh=0 / rc=crf / mbtree=0 / crf=18.0000 / qcomp=0.70 / qpmin=0 / qpmax=69 / qpstep=4 / ip_ratio=1.30 / pb_ratio=1.20 / aq=1:0.90
Language : English
Default : Yes
Forced : No

Audio #1
ID : 2
Format : AC-3
Format/Info : Audio Coding 3
Mode extension : CM (complete main)
Codec ID : A_AC3
Duration : 1h 31mn
Bit rate mode : Constant
Bit rate : 640 Kbps
Channel(s) : 6 channels
Channel positions : Front: L C R, Side: L R, LFE
Sampling rate : 48.0 KHz
Bit depth : 16 bits
Compression mode : Lossy
Stream size : 418 MiB (9%)
Title : AC3 5.1 @ 640 kbps - DUB, Blu-ray CEE
Language : Russian
Default : Yes
Forced : No

Audio #2
ID : 3
Format : DTS
Format/Info : Digital Theater Systems
Codec ID : A_DTS
Duration : 1h 31mn
Bit rate mode : Constant
Bit rate : 1 510 Kbps
Channel(s) : 6 channels
Channel positions : Front: L C R, Side: L R, LFE
Sampling rate : 48.0 KHz
Bit depth : 24 bits
Compression mode : Lossy
Delay relative to video : 11ms
Stream size : 986 MiB (22%)
Title : DTS 5.1 @ 1536 kbps
Language : English
Default : No
Forced : No

Audio #3
ID : 4
Format : AC-3
Format/Info : Audio Coding 3
Format profile : Dolby Digital
Mode extension : CM (complete main)
Codec ID : A_AC3
Duration : 1h 31mn
Bit rate mode : Constant
Bit rate : 192 Kbps
Channel(s) : 2 channels
Channel positions : Front: L R
Sampling rate : 48.0 KHz
Bit depth : 16 bits
Compression mode : Lossy
Stream size : 125 MiB (3%)
Title : AC3 2.0 @ 192 kbps - Commentary with Director Fede Alvarez, Writer Rodo Sayagues, Actors Jane Levy, Lou Taylor Pucci and Jessica Lucas
Language : English
Default : No
Forced : No

Text #1
ID : 5
Format : UTF-8
Codec ID : S_TEXT/UTF8
Codec ID/Info : UTF-8 Plain Text
Title : Blu-ray CEE
Language : Russian
Default : No
Forced : No

Text #2
ID : 6
Format : UTF-8
Codec ID : S_TEXT/UTF8
Codec ID/Info : UTF-8 Plain Text
Language : English
Default : No
Forced : No

Text #3
ID : 7
Format : UTF-8
Codec ID : S_TEXT/UTF8
Codec ID/Info : UTF-8 Plain Text
Title : SDH
Language : English
Default : No
Forced : No

Text #4
ID : 8
Format : UTF-8
Codec ID : S_TEXT/UTF8
Codec ID/Info : UTF-8 Plain Text
Title : SDH-COLORED
Language : English
Default : No
Forced : No

Text #5
ID : 9
Format : UTF-8
Codec ID : S_TEXT/UTF8
Codec ID/Info : UTF-8 Plain Text
Title : Commentary
Language : English
Default : No
Forced : No

Menu
00:00:00.000 : en:Chapter 1
00:05:10.310 : en:Chapter 2
00:09:46.085 : en:Chapter 3
00:14:24.030 : en:Chapter 4
00:18:34.030 : en:Chapter 5
00:23:14.310 : en:Chapter 6
00:30:38.045 : en:Chapter 7
00:35:34.799 : en:Chapter 8
00:40:36.476 : en:Chapter 9
00:49:43.480 : en:Chapter 10
00:55:24.238 : en:Chapter 11
01:01:35.191 : en:Chapter 12
01:08:35.778 : en:Chapter 13
01:14:05.983 : en:Chapter 14
01:17:24.974 : en:Chapter 15
01:20:36.248 : en:Chapter 16
Свернуть

Скриншоты

Изображение

Изображение

Изображение
Свернуть
_________________
«you failed because you had the wrong dream...»
Не в сети
Профиль  
Начать новую темуОтветить на тему  [ 1 сообщение ] 
Вы не можете начинать темы
Вы не можете отвечать на сообщения
Вы не можете редактировать свои сообщения
Вы не можете удалять свои сообщения