Правила форума

  • В этом разделе создание новых тем Запрещено.
  • Для создания новых тем пользуйтесь Корневым разделом DVD и HD фильмы.
Начать новую темуОтветить на тему  [ Сообщений: 2 ] 
Торрент файл
Размер: 8.92 GB • Зарегистрирован: 4 года 4 месяца • Статус: Проверено
Скачан: 232 раза • Желающих скачать: 0 • Поблагодарили: 32 раза
 Раздают: 0  |  0 KB/s  ]   Качают: 0  |  0 KB/s  ] 
 Полного источника не было 5 месяцев 3 дня 
Сообщения
 Добавлено: 2012-07-29 21:59
Модератор
Аватара пользователя
Стаж: 6 лет 10 месяцев
Возраст: 33
Сообщений: 5908
Спасибок: 61259
Лайков: 3540
Изображение

Значит, война | Расширенная версия / This Means War / Unrated Cut


Год выпуска: 2012
Страна: США
Слоган: «2 шпиона - 1 проблема»
Жанр: боевик, мелодрама, комедия
Продолжительность: 01:44:00
Перевод: Профессиональный (полное дублирование) [лицензия]
Режиссер: МакДжи
Сценарий: Тимоти Даулинг, Саймон Кинберг, Маркус Готесен
Продюсер: Саймон Кинберг, Джеймс Ласситер, Роберт Симондз, Уилл Смит, Росс Фанджер
Оператор: Рассел Карпентер
Композитор: Кристоф Бек
В ролях: Том Харди, Крис Пайн, Риз Уизерспун, Тиль Швайгер, Челси Хэндлер, Джон Пол Руттан, Эбигейл Спенсер, Анджела Бассетт, Розмари Харрис, Джордж Тулиатос, Клинт Карлтон, Уоррен Кристи
Бюджет: $65 000 000
Сборы в США: $54 760 791
Сборы в России: $12 994 813
Сборы в мире: $156 491 279
Описание: Два секретных агента, которые к тому же и закадычные друзья, влюбляются в одну и ту же женщину, но ни один не желает уступить другому.
Изображение
MPAA: Изображение
Мировая премьера: 14 февраля 2012
Релиз на DVD: 14 июня 2012, «Двадцатый Век Фокс СНГ»
Релиз на Blu-ray: 14 июня 2012, «Двадцатый Век Фокс СНГ»
Раздача группы: Изображение
Качество: BDRip, 1080p
Формат: Matroska
Видео: AVC; 1920x800 (2.40:1); 9797 Kbps; 23,976 fps; 0,266 bit/pixel
Аудио: Russian; DTS; 754 Kbps; CBR; 6 ch; 24 bit
Аудио 2:DTS; 1536 Kbps; CBR; 6 ch; 24 bit
Оригинал
Субтитры №1: Russian
Субтитры №2: Russian


"Знаете ли Вы, что..."
  • Сэм Уортингтон, Колин Фаррелл, Джастин Тимберлейк и Сет Роген рассматривались на главные роли, но в итоге они достались Крису Пайну и Тому Харди.
Свернуть
MediaInfo
Общее
Уникальный идентификатор : 229940423327293684123136099596326271916 (0xACFCEA27E2CD489A8E90A4BA3AA5FBAC)
Полное имя : D:FilmZnachit.voyna.2012.MPEG-4.AVC.BDRip.1080pZnachit.voyna.2012.MPEG-4.AVC.BDRip.1080p.mkv
Формат : Matroska
Версия формата : Version 2
Размер файла : 7,82 Гбайт
Продолжительность : 1 ч. 44 м.
Общий поток : 10,8 Мбит/сек
Название фильма : Значит, война / This Means War (2012)
Дата кодирования : UTC 2012-06-21 14:26:42
Программа кодирования : mkvmerge v3.4.0 ('Rapunzel') сборка от May 15 2010 09:38:20
Библиотека кодирования : libebml v0.8.0 + libmatroska v0.9.0

Видео
Идентификатор : 1
Формат : AVC
Формат/Информация : Advanced Video Codec
Профиль формата : High@L4.1
Параметр CABAC формата : Да
Параметр ReFrames формата : 4 кадра
Идентификатор кодека : V_MPEG4/ISO/AVC
Продолжительность : 1 ч. 44 м.
Битрейт : 10000 Кбит/сек
Ширина : 1920 пикселей
Высота : 800 пикселей
Соотношение сторон : 2,40:1
Частота кадров : 23,976 кадра/сек
Цветовое пространство : YUV
Субдискретизация насыщенности : 4:2:0
Битовая глубина : 8 бит
Тип развёртки : Прогрессивная
Бит/(Пиксели*Кадры) : 0.272
Размер потока : 7,12 Гбайт (91%)
Библиотека кодирования : x264 core 125 r2200 999b753
Настройки программы : cabac=1 / ref=4 / deblock=1:-2:-2 / analyse=0x3:0x113 / me=umh / subme=11 / psy=1 / psy_rd=1.00:0.10 / mixed_ref=1 / me_range=32 / chroma_me=1 / trellis=2 / 8x8dct=1 / cqm=0 / deadzone=21,11 / fast_pskip=1 / chroma_qp_offset=-3 / threads=4 / lookahead_threads=1 / sliced_threads=0 / nr=0 / decimate=1 / interlaced=0 / bluray_compat=0 / constrained_intra=0 / bframes=4 / b_pyramid=2 / b_adapt=2 / b_bias=0 / direct=3 / weightb=1 / open_gop=0 / weightp=2 / keyint=240 / keyint_min=23 / scenecut=40 / intra_refresh=0 / rc_lookahead=60 / rc=2pass / mbtree=1 / bitrate=10000 / ratetol=1.0 / qcomp=0.60 / qpmin=12 / qpmax=52 / qpstep=4 / cplxblur=20.0 / qblur=0.5 / ip_ratio=1.40 / aq=1:0.90
Язык : English
Default : Да
Forced : Нет

Аудио
Идентификатор : 2
Формат : DTS
Формат/Информация : Digital Theater Systems
Идентификатор кодека : A_DTS
Продолжительность : 1 ч. 44 м.
Вид битрейта : Постоянный
Битрейт : 755 Кбит/сек
Каналы : 6 каналов
Расположение каналов : Front: L C R, Side: L R, LFE
Частота : 48,0 КГц
Битовая глубина : 24 бит
Метод сжатия : С потерями
Задержка видео : 11 мс.
Размер потока : 561 Мбайт (7%)
Заголовок : Русский
Язык : Russian
Default : Да
Forced : Нет

Текст #1
Идентификатор : 3
Формат : UTF-8
Идентификатор кодека : S_TEXT/UTF8
Идентификатор кодека/Информация : UTF-8 Plain Text
Заголовок : Русские (форс.)
Язык : Russian
Default : Да
Forced : Да

Текст #2
Идентификатор : 4
Формат : UTF-8
Идентификатор кодека : S_TEXT/UTF8
Идентификатор кодека/Информация : UTF-8 Plain Text
Заголовок : Русские (полные)
Язык : Russian
Default : Нет
Forced : Нет

Меню
00:00:00.000 : :Chapter 01
00:06:05.823 : :Chapter 03
00:11:14.256 : :Chapter 05
00:15:22.463 : :Chapter 07
00:18:37.032 : :Chapter 09
00:22:51.203 : :Chapter 11
00:24:51.364 : :Chapter 13
00:28:22.700 : :Chapter 15
00:32:03.713 : :Chapter 17
00:37:39.465 : :Chapter 19
00:42:10.819 : :Chapter 21
00:45:56.253 : :Chapter 23
00:48:48.675 : :Chapter 25
00:52:16.132 : :Chapter 27
00:57:02.877 : :Chapter 29
01:03:23.257 : :Chapter 31
01:08:42.034 : :Chapter 33
01:16:30.585 : :Chapter 35
01:19:47.240 : :Chapter 37
01:23:12.362 : :Chapter 39
01:28:23.089 : :Chapter 41
01:33:12.169 : :Chapter 43
01:37:07.655 : :Chapter 45
01:38:50.049 : :Chapter 47
01:43:59.983 : :Chapter 48

Свернуть

Скриншоты

Изображение
Изображение
Изображение
Изображение
Изображение
Изображение
Свернуть
Изображение
_________________
ИзображениеИзображение Изображение
Изображение
 tany1984 и di-ys1 нравится это.
Не в сети
Профиль  
 Добавлено: 2012-09-11 14:17 (спустя 1 месяц 12 дней)
Стаж: 7 лет 8 месяцев
Сообщений: 32
хороший фильм
Не в сети
Профиль  
Начать новую темуОтветить на тему  [ Сообщений: 2 ] 
Вы не можете начинать темы
Вы не можете отвечать на сообщения
Вы не можете редактировать свои сообщения
Вы не можете удалять свои сообщения