Правила форума

  • В этом разделе создание новых тем Запрещено.
  • Для создания новых тем пользуйтесь Корневым разделом DVD и HD фильмы.
Начать новую темуОтветить на тему  [ Сообщений: 4 ] 
Торрент файл
Размер: 10 GB • Зарегистрирован: 5 лет 7 месяцев • Статус: Проверено
Скачан: 288 раз • Желающих скачать: 0 • Поблагодарили: 46 раз
 Раздают: 0  |  0 KB/s  ]   Качают: 0  |  0 KB/s  ] 
 Полного источника не было 1 год 3 месяца 
Сообщения
 Добавлено: 2011-04-15 09:14
Модератор
Аватара пользователя
Стаж: 8 лет 1 месяц
Сообщений: 1991
Спасибок: 129867
Лайков: 20
Знакомство с Факерами 2 / Little Fockers


«Даже дети не помогут?»



Изображение
Год выпуска: 2010
Страна: Изображение США
Жанр: комедия
Продолжительность:
01:37:47

Перевод: Профессиональный (полное дублирование) [лицензия]

Режиссер: Пол Вайц
Сценарий: Джон Гамбург, Ларри Стаки, Грег Глиенна, Мэри Рут Кларк
Продюсер: Джейн Розенталь, Роберт Де Ниро, Джон Гамбург, Джей Роуч, Брэндон Брито
Оператор: Реми Адефаразин
Композитор: Стефен Траск

В ролях:
Роберт Де Ниро (Jack Byrnes,), Бен Стиллер (Greg Focker,), Оуэн Уилсон (Kevin Rawley,), Тери Поло (Pam Focker), Блайт Даннер (Dina Byrnes), Джессика Альба (Andi Garcia), Дастин Хоффман (Bernie Focker), Барбра Стрейзанд (Roz Focker), Лора Дерн (Prudence), Харви Кейтель (Randy Weir), Томас МакКарти (Dr. Bob), Кевин Харт (Nurse Louis)
Дублёры: Никита Прозоровский (Jack Byrnes) (Jack Byrnes), Пётр Иващенко (Greg Focker) (Greg Focker), Илья Бледный (Kevin Rawley) (Kevin Rawley), Елена Ивасишина (Pam Focker) (Pam Focker), Любовь Германова (Dina Byrnes) (Dina Byrnes), Екатерина Щанкина (Andi Garcia) (Andi Garcia), Владимир Еремин (Bernie Focker) (Bernie Focker), Елена Соловьева (Prudence) (Prudence), Константин Карасик (Dr. Bob) (Dr. Bob), Наталья Грачева (Kristen) (Kristen)

Описание: 10 лет, двое детей и бесчисленные испытания понадобились Грегу для того, чтобы тесть частично примирился с его существованием. Но после того как Грег, оказавшись на мели, находит себе халтуру в фармацевтической компании, подозрения Джека увеличиваются в геометрической прогрессии.
Когда все семейство Грега и Пэм, включая ее бывшего возлюбленного Кевина, соберутся на день рождения близнецов, Грегу придется доказать скептично настроенному Джеку, что он настоящий хозяин в доме. Недоразумения, слежка, миссии под прикрытием - как все это поможет Грегу пройти последнее испытание и стать новым главой семьи? Или возникшее между родственниками доверие будет подорвано... к лучшему?


Изображение: 6.039 (7 861)
Изображение: 5.30 (14 586)

MPAA: Изображение - Детям до 13 лет просмотр не желателен

Доп. Информация

Бюджет: $100 000 000
Сборы в США: $148 438 600
Сборы в России: $12 607 406
Сборы в мире: $309 547 887
Мировая премьера: 22 декабря 2010
Изображение Релиз на DVD: 26 апреля 2011, «Юниверсал Пикчерс Рус»
Изображение Релиз на Blu-ray: 26 апреля 2011, «Юниверсал Пикчерс Рус»

Свернуть

Релиз группы: Изображение

Качество: BDRip 1080р [CHD] R5

Формат: MKV
Видео: 12.5 mb/s, 1920x1040
Аудио: Russian: AC3, 640 kb/s (6 ch) / English: DTS, 1510 kb/s (6 ch)
Субтитры: Russian, English
Изображение


BDInfo

Полное имя : Little.Fockers.2010.D.BDRip.1080p.[uniongang.tv].mkv
Формат : Matroska
Размер файла : 10,0 Гбайт
Продолжительность : 1 ч. 37 м.
Общий поток : 14,6 Мбит/сек
Название фильма : Знакомство с Факерами 2 / Little Fockers (2010) .....:::UNIONGANG:::.....
Дата кодирования : UTC 2011-04-14 20:25:51
Программа кодирования : mkvmerge v4.6.0 ('Still Crazy After All These Years') сборка от Mar 10 2011 02:50:32
Библиотека кодирования : libebml v1.2.0 + libmatroska v1.1.0

Видео
Идентификатор : 1
Формат : AVC
Формат/Информация : Advanced Video Codec
Профиль формата : High@L4.1
Параметр CABAC формата : Да
Параметр ReFrames формата : 4 кадры
Идентификатор кодека : V_MPEG4/ISO/AVC
Продолжительность : 1 ч. 37 м.
Битрейт : 12,5 Мбит/сек
Ширина : 1920 пикс.
Высота : 1040 пикс.
Соотношение сторон : 16:9
Частота кадров : 23,976 кадр/сек
Цветовое пространство : YUV
Подвыборка цветности : 4:2:0
Битовая глубина : 8 бит
Тип развёртки : Прогрессивная
Бит/(Пиксели*Кадры) : 0.261
Размер потока : 8,34 Гбайт (83%)
Заголовок : Little.Fockers.2010.BDRip.1080p.DTS.x264-CHD
Библиотека кодирования : x264 core 107 r1766 f9f0035
Настройки программы : cabac=1 / ref=4 / deblock=1:-3:-3 / analyse=0x3:0x113 / me=umh / subme=10 / psy=1 / psy_rd=1.05:0.10 / mixed_ref=1 / me_range=32 / chroma_me=1 / trellis=2 / 8x8dct=1 / cqm=2 / deadzone=21,11 / fast_pskip=0 / chroma_qp_offset=-2 / threads=12 / sliced_threads=0 / nr=0 / decimate=1 / interlaced=0 / constrained_intra=0 / bframes=6 / b_pyramid=2 / b_adapt=2 / b_bias=0 / direct=3 / weightb=1 / open_gop=0 / weightp=2 / keyint=250 / keyint_min=23 / scenecut=40 / intra_refresh=0 / rc_lookahead=50 / rc=2pass / mbtree=1 / bitrate=12500 / ratetol=1.0 / qcomp=0.70 / qpmin=10 / qpmax=51 / qpstep=4 / cplxblur=20.0 / qblur=0.5 / vbv_maxrate=40000 / vbv_bufsize=30000 / ip_ratio=1.40 / aq=1:0.80 / nal_hrd=none
Язык : English

Аудио #1
Идентификатор : 2
Формат : AC-3
Формат/Информация : Audio Coding 3
Расширение режима : CM (complete main)
Идентификатор кодека : A_AC3
Продолжительность : 1 ч. 37 м.
Вид битрейта : Постоянный
Битрейт : 640 Кбит/сек
Канал(ы) : 6 канала(ов)
Расположение каналов : Front: L C R, Side: L R, LFE
Частота : 48,0 КГц
Битовая глубина : 16 бит
Метод сжатия : С потерями
Задержка видео : 26 мс.
Размер потока : 448 Мбайт (4%)
Заголовок : AC3 5.1 @ 640 kb/s [Russian DUB Blu-ray]
Язык : Russian

Аудио #2
Идентификатор : 3
Формат : DTS
Формат/Информация : Digital Theater Systems
Идентификатор кодека : A_DTS
Продолжительность : 1 ч. 37 м.
Вид битрейта : Постоянный
Битрейт : 1510 Кбит/сек
Канал(ы) : 6 канала(ов)
Расположение каналов : Front: L C R, Side: L R, LFE
Частота : 48,0 КГц
Битовая глубина : 24 бит
Метод сжатия : С потерями
Размер потока : 1,03 Гбайт (10%)
Заголовок : DTS 5.1 @ 1510 kb/s [English]
Язык : English

Текст #1
Идентификатор : 4
Формат : UTF-8
Идентификатор кодека : S_TEXT/UTF8
Идентификатор кодека/Информация : UTF-8 Plain Text
Заголовок : Russian SUB
Язык : Russian

Текст #2
Идентификатор : 5
Формат : UTF-8
Идентификатор кодека : S_TEXT/UTF8
Идентификатор кодека/Информация : UTF-8 Plain Text
Заголовок : English SUB
Язык : English
Свернуть
Скриншоты

Изображение
Изображение
Изображение
Изображение
Свернуть

_________________
Себе ты можешь не качать, но раздавать другим обязан!
Не в сети
Профиль  
 Добавлено: 2011-04-15 20:05 (спустя 10 часов)
Аватара пользователя
Стаж: 8 лет 7 месяцев
Сообщений: 78
Спасибо, с декабря ждал в хорошем качестве!!!!
Не в сети
Профиль  
 Добавлено: 2011-04-18 13:54 (спустя 2 дня 17 часов)
Стаж: 8 лет
Сообщений: 27
Спасибок: 26
Лайков: 1
очень скучный фильм, смеяться негде, зря качал и время тратил на просмотр
Не в сети
Профиль  
 Добавлено: 2011-04-19 07:07 (спустя 17 часов)
Аватара пользователя
Стаж: 8 лет 11 месяцев
Сообщений: 518
Спасибок: 39
Лайков: 49

culicy:

очень скучный фильм, смеяться негде, зря качал и время тратил на просмотр

Не может быть, столько знамениток а фильм скучный :sh_ok:
Не в сети
Профиль  
Начать новую темуОтветить на тему  [ Сообщений: 4 ] 
Вы не можете начинать темы
Вы не можете отвечать на сообщения
Вы не можете редактировать свои сообщения
Вы не можете удалять свои сообщения