Правила форума

  • В этом разделе создание новых тем Запрещено.
  • Для создания новых тем пользуйтесь Корневым разделом DVD и HD фильмы.
Начать новую темуОтветить на тему  [ 1 сообщение ] 
Торрент файл
Размер: 12.66 GB • Зарегистрирован: 5 лет 7 месяцев • Статус: Проверено
Скачан: 25 раз • Желающих скачать: 0 • Поблагодарили: 7 раз
 Раздают: 0  |  0 KB/s  ]   Качают: 0  |  0 KB/s  ] 
 Полного источника не было 11 месяцев 
Сообщения
 Добавлено: 2011-04-30 18:51
Инквизитор
Аватара пользователя
Стаж: 8 лет 8 месяцев
Сообщений: 3753
Спасибок: 28360
Лайков: 9
Изображение

Знакомство с Факерами / Meet the Fockers


«Misery loves family.»

Год выпуска: 2004
Страна: США
Жанр: мелодрама, комедия
Продолжительность: 01:55:17
Перевод: Профессиональный (полное дублирование)
Режиссер: Джей Роуч
Сценарий: Грег Глиенна, Мэри Рут Кларк, Джеймс Херцфелд
Продюсер: Роберт Де Ниро, Джей Роуч, Джейн Розенталь
Оператор: Джон Шварцман
Композитор: Рэнди Ньюман
В ролях: Роберт Де Ниро, Бен Стиллер, Дастин Хоффман, Барбара Стрейзанд, Блайт Дэннер, Тери Поло, Оуэн Уилсон, Спенсер Пикрен, Брэдли Пикрен, Элэнна Юбэк
Описание: Дав разрешение санитару Грэгу Факеру на свадьбу с их дочерью, бывший ЦэРэУшник Джек Бернс и его жена отправляются в Майами к родителям жениха. У них в голове много вопросов. Что это за семейка такая - Факеры? И что это вообще за родители, которые назвали сына Гей (Гейлард) М. Факер?
Изображение
Бюджет: $80 000 000
Сборы в мире: $516 533 043
Изображение
MPAA: Изображение
Раздача группы: Изображение
Качество: HD-DVDRip
Формат: MKV
Видео: 1920x1040p, 23.976 fps, 13759 kbps
Аудио 1: Русский AC3 5.1, 48 kHz 448 kbps
Аудио 2: Английский DTS 5.1, 48 kHz 1536 kbps (отдельным файлом)

"Знаете ли Вы, что..."
  • Создателям фильма пришлось доказать FCC, что существует человек с фамилией Факер (англ. Focker), прежде чем фильму разрешили выйти на экран.
Свернуть

M.I.
Общее
Полное имя                       : F:\Фильмы\Znakomstvo s Fakerami.HD DVDRip.1080p.x264 - CtrlHD\Znakomstvo s Fakerami.HD DVDRip.1080p.x264 - CtrlHD.dts
Формат                           : DTS
Формат/Информация                : Digital Theater Systems
Размер файла                     : 1,22 Гбайт
Продолжительность                : 1 ч. 55 м.
Общий поток                      : 1510 Кбит/сек

Аудио
Формат                           : DTS
Формат/Информация                : Digital Theater Systems
Продолжительность                : 1 ч. 55 м.
Вид битрейта                     : Постоянный
Битрейт                          : 1510 Кбит/сек
Канал(ы)                         : 6 канала(ов)
Расположение каналов             : Front: L C R, Side: L R, LFE
Частота                          : 48,0 КГц
Битовая глубина                  : 24 бит
Метод сжатия                     : С потерями
Размер потока                    : 1,22 Гбайт (100%)

Общее
Уникальный идентификатор         : 194767180470500774422081149594076356230 (0x9286CB64B15EEB63AEDA2340A32E9E86)
Полное имя                       : F:\Фильмы\Znakomstvo s Fakerami.HD DVDRip.1080p.x264 - CtrlHD\Znakomstvo s Fakerami.HD DVDRip.1080p.x264 - CtrlHD.mkv
Формат                           : Matroska
Размер файла                     : 11,4 Гбайт
Продолжительность                : 1 ч. 55 м.
Общий поток                      : 14,2 Мбит/сек
Дата кодирования                 : UTC 2008-10-18 20:01:20
Программа кодирования            : mkvmerge v2.2.0 ('Turn It On Again') built on Mar  4 2008 12:58:26
Библиотека кодирования           : libebml v0.7.7 + libmatroska v0.8.1

Видео
Идентификатор                    : 1
Формат                           : AVC
Формат/Информация                : Advanced Video Codec
Профиль формата                  : High@L5.1
Параметр CABAC формата           : Да
Параметр ReFrames формата        : 8 кадры
Идентификатор кодека             : V_MPEG4/ISO/AVC
Продолжительность                : 1 ч. 55 м.
Битрейт                          : 13,8 Мбит/сек
Ширина                           : 1920 пикс.
Высота                           : 1040 пикс.
Соотношение сторон               : 16:9
Частота кадров                   : 23,976 кадр/сек
Цветовое пространство            : YUV
Подвыборка цветности             : 4:2:0
Битовая глубина                  : 8 бит
Тип развёртки                    : Прогрессивная
Бит/(Пиксели*Кадры)              : 0.287
Размер потока                    : 10,9 Гбайт (95%)
Библиотека кодирования           : x264 core 56 svn-680
Настройки программы              : cabac=1 / ref=5 / deblock=1:-3:-3 / analyse=0x3:0x133 / me=umh / subme=7 / brdo=1 / mixed_ref=1 / me_range=16 / chroma_me=1 / trellis=1 / 8x8dct=1 / cqm=2 / deadzone=21,11 / chroma_qp_offset=0 / threads=6 / nr=0 / decimate=1 / mbaff=0 / bframes=16 / b_pyramid=1 / b_adapt=1 / b_bias=0 / direct=3 / wpredb=1 / bime=1 / keyint=250 / keyint_min=25 / scenecut=40(pre) / rc=2pass / bitrate=13759 / ratetol=1.0 / rceq='blurCplx^(1-qComp)' / qcomp=0.60 / qpmin=10 / qpmax=51 / qpstep=4 / cplxblur=20.0 / qblur=0.5 / ip_ratio=1.40 / pb_ratio=1.30 / aq=1:0.3:15.0
Язык                             : English

Аудио
Идентификатор                    : 2
Формат                           : AC-3
Формат/Информация                : Audio Coding 3
Расширение режима                : CM (complete main)
Идентификатор кодека             : A_AC3
Продолжительность                : 1 ч. 55 м.
Вид битрейта                     : Постоянный
Битрейт                          : 448 Кбит/сек
Канал(ы)                         : 6 канала(ов)
Расположение каналов             : Front: L C R, Side: L R, LFE
Частота                          : 48,0 КГц
Битовая глубина                  : 16 бит
Метод сжатия                     : С потерями
Размер потока                    : 369 Мбайт (3%)
Заголовок                        : AC3 448 kbps
Язык                             : Russian

Текст
Идентификатор                    : 3
Формат                           : UTF-8
Идентификатор кодека             : S_TEXT/UTF8
Идентификатор кодека/Информация  : UTF-8 Plain Text
Язык                             : Russian
Свернуть
Скриншоты
Изображение
Изображение
Изображение
Изображение
Свернуть
Не в сети
Профиль  
Начать новую темуОтветить на тему  [ 1 сообщение ] 
Вы не можете начинать темы
Вы не можете отвечать на сообщения
Вы не можете редактировать свои сообщения
Вы не можете удалять свои сообщения